โหลดหนัง HD MINI-HD SUPER-HQ Full-HD 1080p VIP Master Zoom ซูม หนังใหม่ ออนไลน์ มาสเตอร์ ไทย จีน ฝรั่ง การ์ตูน

[MINI Super-HQ] Jason Bourne (2016) เจสัน บอร์น ยอดจารชนคนอันตราย ภาค 5 [1080p] [พากย์ไทย DTS + เสียงอังกฤษ DTS] [บรรยายไทย + อังกฤษ] [เสียงไทย + ซับไทย] [ONE2UP]

0

โหลดหนัง  Jason Bourne (2016) เจสัน บอร์น ยอดจารชนคนอันตราย ภาค 5

เรื่องย่อ Jason Bourne (2016) เจสัน บอร์น ยอดจารชนคนอันตราย ภาค 5

ภาพยนตร์แฟรนไชส์นี้กวาดรายได้จาก 4 ภาคแรก มากกว่า 1.2 พันล้านเหรียญสหรัฐฯ กลับมาคราวนี้ เจสัน บอร์น มาพร้อมกับความทรงจำแม้ว่าจะจำได้ทุกอย่าง แต่ก็ไม่ได้รู้ทุกอย่างเสมอไปภาคนี้ทิ้งห่างจากภาคก่อนถึง 9 ปีโดย พอล กรีนกราสส์ ผู้กำกับภาพยนตร์บอกว่า กว่าจะกลับคราวนี้ใช้เวลานาน เพราะเรายังไม่ได้บทที่โดนใจ และให้ข้อมูลเพิ่มเติมว่า เจสัน บอร์น ไม่ได้เป็นซุปเปอร์ฮีโร่จึงไม่ต้องใส่หน้ากากหรือผ้าคลุม เขาเป็นเพียงผู้ชายธรรมดาคนหนึ่ง ผมคิดว่าตอนที่คนดูเจสัน บอร์น พวกเขาสามารถจินตนาการได้ว่าจะตอบโต้กับสถานการณ์และสภาพแวดล้อมได้อย่างไร มันตื่นเต้นมากเวลาที่คุณเห็นเขาคิดแผนการและเริ่มปฏิบัติการตามแผนในภาคนี้ แมตต์ เดม่อน จะประกบคู่กับ อลิเชีย วิกันเดอร์ นักแสดงสาวรางวัลออสการ์ปีล่าสุด พร้อมด้วย จูเลีย สไตล์ และทอมมี่ ลี โจนส์โดย แฟรงค์ มาร์แชล กลับมาดูแลงานสร้างร่วมกับเจฟฟรีย์ ไวเนอร์ จากแคปทิเวท เอนเตอร์เทนเมนท์นอกจากนี้ กรีนกราสส์, เดม่อน, เกร็กกอรี กู๊ดแมน และเบน สมิธ ยังร่วมสร้างภาพยนตร์เรื่องนี้ด้วย !!!

Complete name : [MINI Super-HQ]_Jason.Bourne.2016.BluRay.1080p.DTS.x264.One2loadup.com.mkv
Format : Matroska
Format version : Version 2
File size : 4.09 GiB
Duration : 2 h 3 min
Overall bit rate : 4 754 kb/s
Encoded date : UTC 2017-07-28 11:42:10 / UTC 2016-11-19T08:23:14Z
Writing application : mkvmerge v5.7.0 (‘The Whirlwind’) built on Jul 8 2012 20:08:51
Writing library : libebml v1.2.3 + libmatroska v1.3.0 / Lavf55.12.0

Video
ID : 1
Format : AVC
Format/Info : Advanced Video Codec
Format profile : [email protected]
Format settings : CABAC / 4 Ref Frames
Format settings, CABAC : Yes
Format settings, ReFrames : 4 frames
Muxing mode : Header stripping
Codec ID : V_MPEG4/ISO/AVC
Duration : 2 h 3 min
Bit rate : 2 383 kb/s
Width : 1 920 pixels
Height : 804 pixels
Display aspect ratio : 2.40:1
Frame rate mode : Constant
Frame rate : 23.976 (24000/1001) FPS
Color space : YUV
Chroma subsampling : 4:2:0
Bit depth : 8 bits
Scan type : Progressive
Bits/(Pixel*Frame) : 0.064
Stream size : 2.05 GiB (50%)
Title : [MINI Super-HQ]_Jason.Bourne.2016.BluRay.1080p.DTS.x264.One2loadup.com
Writing library : x264 core 142 r2479 dd79a61
Encoding settings : cabac=1 / ref=1 / deblock=1:0:0 / analyse=0x1:0x111 / me=hex / subme=2 / psy=1 / psy_rd=1.00:0.00 / mixed_ref=0 / me_range=16 / chroma_me=1 / trellis=0 / 8x8dct=0 / cqm=0 / deadzone=21,11 / fast_pskip=1 / chroma_qp_offset=0 / threads=6 / lookahead_threads=2 / sliced_threads=0 / nr=0 / decimate=1 / interlaced=0 / bluray_compat=0 / constrained_intra=0 / bframes=3 / b_pyramid=2 / b_adapt=1 / b_bias=0 / direct=1 / weightb=1 / open_gop=0 / weightp=1 / keyint=240 / keyint_min=24 / scenecut=40 / intra_refresh=0 / rc_lookahead=10 / rc=crf / mbtree=1 / crf=23.0 / qcomp=0.60 / qpmin=0 / qpmax=69 / qpstep=4 / vbv_maxrate=20000 / vbv_bufsize=25000 / crf_max=0.0 / nal_hrd=none / filler=0 / ip_ratio=1.40 / aq=1:1.00
Language : English
Default : Yes
Forced : No
Color range : Limited
Color primaries : BT.709
Transfer characteristics : BT.709
Matrix coefficients : BT.709
Statistics Tags Issue : mkvmerge v8.3.0 (‘Over the Horizon’) 64bit 2016-11-19 09:18:25 / mkvmerge v5.7.0 (‘The Whirlwind’) built on Jul 8 2012 20:08:51 2017-07-28 11:42:10 / UTC 2016-11-19T08:23:14Z
FromStats_BitRate : 2465808
FromStats_Duration : 02:03:11.610000000
FromStats_FrameCount : 177221
FromStats_StreamSize : 2278286561

Audio #1
ID : 2
Format : DTS
Format/Info : Digital Theater Systems
Muxing mode : Header stripping
Codec ID : A_DTS
Duration : 2 h 3 min
Bit rate mode : Constant
Bit rate : 768 kb/s
Channel(s) : 6 channels
Channel positions : Front: L C R, Side: L R, LFE
Sampling rate : 48.0 kHz
Frame rate : 93.750 FPS (512 SPF)
Bit depth : 24 bits
Compression mode : Lossy
Stream size : 677 MiB (16%)
Title : Thai DTS 768 Kbps
Language : Thai
Default : Yes
Forced : Yes
Statistics Tags Issue : mkvmerge v8.3.0 (‘Over the Horizon’) 64bit 2016-11-19 09:18:25 / mkvmerge v5.7.0 (‘The Whirlwind’) built on Jul 8 2012 20:08:51 2017-07-28 11:42:10 / UTC 2016-11-19T08:23:14Z
FromStats_BitRate : 768000
FromStats_Duration : 02:03:11.584000000
FromStats_FrameCount : 692961
FromStats_StreamSize : 709592064

Audio #2
ID : 3
Format : DTS
Format/Info : Digital Theater Systems
Muxing mode : Header stripping
Codec ID : A_DTS
Duration : 2 h 3 min
Bit rate mode : Constant
Bit rate : 1 509 kb/s
Channel(s) : 6 channels
Channel positions : Front: L C R, Side: L R, LFE
Sampling rate : 48.0 kHz
Frame rate : 93.750 FPS (512 SPF)
Bit depth : 24 bits
Compression mode : Lossy
Stream size : 1.30 GiB (32%)
Title : English DTS 1 509 Kbps
Language : English
Default : No
Forced : No
Statistics Tags Issue : mkvmerge v8.3.0 (‘Over the Horizon’) 64bit 2016-11-19 09:18:25 / mkvmerge v5.7.0 (‘The Whirlwind’) built on Jul 8 2012 20:08:51 2017-07-28 11:42:10 / UTC 2016-11-19T08:23:14Z
FromStats_BitRate : 1509000
FromStats_Duration : 02:03:11.584000000
FromStats_FrameCount : 692961
FromStats_StreamSize : 1394237532

Text #1
ID : 4
Format : PGS
Muxing mode : zlib
Codec ID : S_HDMV/PGS
Codec ID/Info : Picture based subtitle format used on BDs/HD-DVDs
Language : English
Default : No
Forced : No
Statistics Tags Issue : mkvmerge v8.3.0 (‘Over the Horizon’) 64bit 2016-11-19 09:18:25 / mkvmerge v5.7.0 (‘The Whirlwind’) built on Jul 8 2012 20:08:51 2017-07-28 11:42:10 / UTC 2016-11-19T08:23:14Z
FromStats_BitRate : 9220
FromStats_Duration : 01:53:00.023000000
FromStats_FrameCount : 2490
FromStats_StreamSize : 7814546

Text #2
ID : 5
Format : PGS
Muxing mode : zlib
Codec ID : S_HDMV/PGS
Codec ID/Info : Picture based subtitle format used on BDs/HD-DVDs
Language : Thai
Default : No
Forced : Yes
Statistics Tags Issue : mkvmerge v8.3.0 (‘Over the Horizon’) 64bit 2016-11-19 09:18:25 / mkvmerge v5.7.0 (‘The Whirlwind’) built on Jul 8 2012 20:08:51 2017-07-28 11:42:10 / UTC 2016-11-19T08:23:14Z
FromStats_BitRate : 6134
FromStats_Duration : 02:02:25.589000000
FromStats_FrameCount : 2285
FromStats_StreamSize : 5632560

Text #3
ID : 6
Format : PGS
Muxing mode : zlib
Codec ID : S_HDMV/PGS
Codec ID/Info : Picture based subtitle format used on BDs/HD-DVDs
Language : Thai
Default : Yes
Forced : Yes
Statistics Tags Issue : mkvmerge v8.3.0 (‘Over the Horizon’) 64bit 2016-11-19 09:18:25 / mkvmerge v5.7.0 (‘The Whirlwind’) built on Jul 8 2012 20:08:51 2017-07-28 11:42:10 / UTC 2016-11-19T08:23:14Z
FromStats_BitRate : 266
FromStats_Duration : 01:57:56.737000000
FromStats_FrameCount : 98
FromStats_StreamSize : 235689

Menu
00:00:00.000 : :Chapter 1
00:04:04.762 : :Chapter 2
00:08:21.643 : :Chapter 3
00:13:32.078 : :Chapter 4
00:18:27.707 : :Chapter 5
00:24:07.338 : :Chapter 6
00:29:21.360 : :Chapter 7
00:36:15.649 : :Chapter 8
00:42:20.764 : :Chapter 9
00:48:22.542 : :Chapter 10
00:55:12.284 : :Chapter 11
01:01:09.767 : :Chapter 12
01:08:32.584 : :Chapter 13
01:16:23.429 : :Chapter 14
01:24:45.431 : :Chapter 15
01:29:06.066 : :Chapter 16
01:37:53.009 : :Chapter 17
01:44:26.444 : :Chapter 18
01:48:03.828 : :Chapter 19
01:54:01.310 : :Chapter 20

DOWNLOAD


PART01 |||| PART02 |||| PART03 |||| PART04

PART01 |||| PART02 |||| PART03 |||| PART04

PART01 |||| PART02 |||| PART03 |||| PART04

PART01 |||| PART02 |||| PART03 |||| PART04


Leave A Reply

Your email address will not be published.

%d bloggers like this: