[FULL-HD LHQ] Universal Soldier: The Return (1999) 2 คนไม่ใช่คน นักรบกระดูกสมองกล ภาค 2 [1080p] [พากย์ไทย 5.1 + เสียงอังกฤษ DTS] [บรรยายไทย + อังกฤษ] [เสียงไทย + ซับไทย] [OPENLOAD]

0

โหลดหนัง  Universal Soldier: The Return (1999) 2 คนไม่ใช่คน นักรบกระดูกสมองกล ภาค 2

Universal Soldier: The Return (1999) 1h 23min | Action, Sci-Fi | 19 August 1999 (Netherlands) Summary: The "universal soldiers" must fight the whole army. When the military's supercomputer S.E.T.H gets out of control
Countries: USALanguages: English

เรื่องย่อ Universal Soldier: The Return (1999) 2 คนไม่ใช่คน นักรบกระดูกสมองกล ภาค 2

เจ็ดปีหลังจากเหตุการณ์ในภาพยนตร์เรื่องแรกที่ลัค Deveraux (แวนแดมม์) ตอนนี้มนุษย์ธรรมดาเป็นผู้เชี่ยวชาญด้านเทคนิคที่จะท ำงานร่วมกับรัฐบาลกับหุ้นส่วนของเขาแม็กกี้ (Kiana ทอม) ที่ได้รับผ่านเวลานับไม่ถ้วนของการฝึกอบรมการต่อสู้ กับเขาในการที่จะปรับแต่งและสมบูรณ์แบบโปรแกรม UNISOL ในความพยายามที่จะทำให้ใหม่สายพันธุ์ที่แข็งแกร่งของ ทหารที่มีความซับซ้อนมากขึ้น, ฉลาด, สำรองใช้ทหารที่อาศัยอยู่ในสนามรบ ทั้งหมดของ UniSols ใหม่ซึ่งจะเร็วและแข็งแรงกว่า UniSols เดิมมีการเชื่อมต่อผ่านระบบคอมพิวเตอร์อัจฉริยะที่เร ียกว่า SETH (เสียงของไมเคิลอึ๊งสีขาว), ตนเองพัฒนาความคิดที่เป็นเกลียว เมื่อ S.E.T.H. ค้นพบว่าโปรแกรมทหารทั่วไปมีกำหนดจะต้องปิดตัวลงเนื่ องจากการตัดงบประมาณก็จะใช้เวลาดำเนินการเพื่อปกป้อง ตัวเอง ฆ่าคนที่พยายามที่จะปิดไฟของเขาและ unleashing ทหารของทหารซุปเปอร์ของเขานำโดย musclebound โรมิโอ (บิลโกลด์เบิร์ก) เซท อะไหล่เดเวอโรเพียงเพราะเดเวอโรมีรหัสลับที่จำเป็นใน การยกเลิกการใช้งานโปรแกรมในตัวที่จะปิด SETH ลงไปในเวลาไม่กี่ชั่วโมง ด้วยความช่วยเหลือของปลาหมึก (เบรนต์ Hinkley) Cyberpunk โกง SETH สามารถที่จะนำโปรแกรมของเขาใน UNISOL ซึ่งปลาหมึกทำดีกว่าใด ๆ ของรูปแบบใหม่ (สีขาว) ไม่เพียง แต่ลัคต้องต่อสู้กับนักข่าวทะเยอทะยานอีรินหนุ่ม (Schanz) ที่จะไม่ออกจากด้านข้างของเขา แต่ลุคยังต้องต่อสู้กับนายพลราด (แดเนียลฟอน Bargen) ที่ต้องการใช้มาตรการรุนแรงที่จะหยุด SETH. SETH ได้จัดให้มีโรมิโอที่จะลักพาตัวลัคได้รับบาดเจ็บลูกส าววัย 13 ปีของฮิลลารี (Karis Paige ไบรอันท์), แม็กกี้ฆ่าในกระบวนการ ลัคเป็นเพียงคนเดียวที่สามารถช่วยชีวิตฮิลลารีลัคเพร าะรู้ทันทีว่า UNISOL คิดความรู้สึกและการต่อสู้ ลัค infiltrates อาคาร UNISOL แต่พบว่าแม็กกี้ฟื้นขึ้นมาตอนนี้เป็นหนึ่งใน UniSols SETH สามารถที่จะคิดออกรหัสตัวเองตัดสินใจที่จะฆ่าลัคและฮ ิลลารียกตัวเองที่เขาได้รับการเยียวยาโดยใช้เทคโนโลย ี UNISOL ในระหว่างการต่อสู้ลัครอบคลุม S.E.T.H. ในไนโตรเจนเหลวจากนั้นชิ้นส่วนร่างกายแช่แข็งของเซท ลัคแล้วประกอบเข้าไปในการต่อสู้กับโรมิโอซึ่งสิ้นสุด ลงเมื่อแม็กกี้ในที่สุดกบฏต่อต้าน UniSols โดยการยิงโรมิโอและช่วยให้ลัคและฮิลลารีที่จะได้รับอ อกจากอาคารในเวลา แต่ระเบิดที่ทั่วไปราดได้วางถูกปิดการใช้งานโดย SETH. ในฐานะที่เป็นโรมิโอและทหารของยูนิเวอร์แซทหารเริ่มต ้นที่จะเดินออกมาสำหรับการต่อสู้ไฟลัคที่ระเบิดเกิดร ะเบิดขึ้นอาคารฆ่าทั้งทหารสากล !!!

Complete name : [FULL-HD LHQ]_2.Universal.Soldier.The.Return.1999.1080p.DTS.x264.One2loadup.com.mkv
Format : Matroska
Format version : Version 4
File size : 8.97 GiB
Duration : 1 h 22 min
Overall bit rate : 15.5 Mb/s
Movie name : [FULL-HD LHQ]_2.Universal.Soldier.The.Return.1999.1080p.DTS.x264.One2loadup.com
Encoded date : UTC 2016-05-18 03:10:10
Writing application : mkvmerge v8.2.0 (‘World of Adventure’) 64bit
Writing library : libebml v1.3.1 + libmatroska v1.4.2

Video
ID : 1
Format : AVC
Format/Info : Advanced Video Codec
Format profile : [email protected]
Format settings : CABAC / 4 Ref Frames
Format settings, CABAC : Yes
Format settings, ReFrames : 4 frames
Codec ID : V_MPEG4/ISO/AVC
Duration : 1 h 22 min
Bit rate : 13.1 Mb/s
Width : 1 920 pixels
Height : 1 040 pixels
Display aspect ratio : 1.85:1
Frame rate mode : Constant
Frame rate : 23.976 FPS
Color space : YUV
Chroma subsampling : 4:2:0
Bit depth : 8 bits
Scan type : Progressive
Bits/(Pixel*Frame) : 0.273
Stream size : 7.57 GiB (84%)
Title : [FULL-HD LHQ]_2.Universal.Soldier.The.Return.1999.1080p.DTS.x264.One2loadup.com
Writing library : x264 core 67 r1137M 1fda882
Encoding settings : cabac=1 / ref=4 / deblock=1:0:0 / analyse=0x3:0x133 / me=umh / subme=7 / psy_rd=1.0:0.0 / mixed_ref=1 / me_range=16 / chroma_me=1 / trellis=1 / 8x8dct=1 / cqm=0 / deadzone=21,11 / chroma_qp_offset=-2 / threads=6 / nr=0 / decimate=1 / mbaff=0 / bframes=3 / b_pyramid=1 / b_adapt=1 / b_bias=0 / direct=1 / wpredb=1 / keyint=250 / keyint_min=25 / scenecut=40 / rc=2pass / bitrate=13067 / ratetol=1.0 / qcomp=0.60 / qpmin=10 / qpmax=51 / qpstep=4 / cplxblur=20.0 / qblur=0.5 / ip_ratio=1.40 / pb_ratio=1.30 / aq=1:1.00
Language : English
Default : Yes
Forced : No

Audio #1
ID : 2
Format : AC-3
Format/Info : Audio Coding 3
Commercial name : Dolby Digital
Codec ID : A_AC3
Duration : 1 h 22 min
Bit rate mode : Constant
Bit rate : 256 kb/s
Channel(s) : 6 channels
Channel layout : L R C LFE Ls Rs
Sampling rate : 48.0 kHz
Frame rate : 31.250 FPS (1536 SPF)
Bit depth : 16 bits
Compression mode : Lossy
Stream size : 152 MiB (2%)
Title : Thai AC-3
Language : Thai
Service kind : Complete Main
Default : Yes
Forced : Yes

Audio #2
ID : 3
Format : DTS
Format/Info : Digital Theater Systems
Codec ID : A_DTS
Duration : 1 h 22 min
Bit rate mode : Constant
Bit rate : 1 510 kb/s
Channel(s) : 6 channels
Channel layout : C L R Ls Rs LFE
Sampling rate : 48.0 kHz
Frame rate : 93.750 FPS (512 SPF)
Bit depth : 24 bits
Compression mode : Lossy
Stream size : 896 MiB (10%)
Title : Eng DTS
Language : English
Default : No
Forced : No

Audio #3
ID : 4
Format : AC-3
Format/Info : Audio Coding 3
Commercial name : Dolby Digital
Codec ID : A_AC3
Duration : 1 h 22 min
Bit rate mode : Constant
Bit rate : 640 kb/s
Channel(s) : 6 channels
Channel layout : L R C LFE Ls Rs
Sampling rate : 48.0 kHz
Frame rate : 31.250 FPS (1536 SPF)
Bit depth : 16 bits
Compression mode : Lossy
Stream size : 380 MiB (4%)
Title : Eng AC-3
Language : English
Service kind : Complete Main
Default : No
Forced : No

Text #1
ID : 5
Format : VobSub
Muxing mode : zlib
Codec ID : S_VOBSUB
Codec ID/Info : Picture based subtitle format used on DVDs
Duration : 1 h 18 min
Bit rate : 1 168 b/s
Count of elements : 795
Stream size : 675 KiB (0%)
Title : Thai
Language : Thai
Default : No
Forced : No

Text #2
ID : 6
Format : VobSub
Muxing mode : zlib
Codec ID : S_VOBSUB
Codec ID/Info : Picture based subtitle format used on DVDs
Duration : 1 h 14 min
Bit rate : 1 363 b/s
Count of elements : 656
Stream size : 747 KiB (0%)
Title : Eng
Language : English
Default : No
Forced : No

Text #3
ID : 7
Format : UTF-8
Codec ID : S_TEXT/UTF8
Codec ID/Info : UTF-8 Plain Text
Duration : 1 h 14 min
Bit rate : 41 b/s
Count of elements : 656
Stream size : 22.9 KiB (0%)
Title : Eng SRT
Language : English
Default : No
Forced : No

DOWNLOAD


PART01 |||| PART02 |||| PART03 |||| PART04 |||| PART05

PART06 |||| PART07 |||| PART08 |||| PART09

PART01 |||| PART02 |||| PART03 |||| PART04 |||| PART05

PART06 |||| PART07 |||| PART08 |||| PART09

PART01 |||| PART02 |||| PART03 |||| PART04 |||| PART05

PART06 |||| PART07 |||| PART08 |||| PART09

PART01 |||| PART02 |||| PART03 |||| PART04 |||| PART05

PART06 |||| PART07 |||| PART08 |||| PART09


Leave A Reply

Your email address will not be published.

%d bloggers like this: