[FULL-HD LHQ] Universal Soldier: Regeneration (2009) 2 คนไม่ใช่คน สงครามสมองกลพันธุ์ใหม่ ภาค 3 [1080p] [พากย์ไทย 5.1 + เสียงอังกฤษ DTS] [บรรยายไทย + อังกฤษ] [เสียงไทย + ซับไทย] [OPENLOAD]

0

Universal Soldier: Regeneration (2009) 2 คนไม่ใช่คน สงครามสมองกลพันธุ์ใหม่ ภาค 3

โหลดหนัง Universal Soldier: Regeneration (2009) 2 คนไม่ใช่คน สงครามสมองกลพันธุ์ใหม่ ภาค 3 

เรื่องย่อ Universal Soldier: Regeneration (2009) 2 คนไม่ใช่คน สงครามสมองกลพันธุ์ใหม่ ภาค 3

การกลับมาของ Jean-claude Van Damme เป็น Lvo Devreaux และ.Dolph Lundgren เป็น Sgt Andkew Scott สองทหารฝีมือเยี่ยมในสมรภูมิเวียดนาม 25 ปี ต่อมา เขาทั้งคู่ถูกพามาเพื่อทดลองภารกิจลับสุด ยอดภายใต้รหัส “UNISOLS” ซึ่งเป็นการเปลี่ยนแปลงรูปแบบของการรบของมนุษยชาติให ้เป็นทหารที่ไร้ความรู้สึก ความทรงจำปฏิบัติตามอย่างเดียว !!!

Complete name : [FULL-HD LHQ]_3.Universal.Soldier.Regeneration.2009.1080p.DTS.x264.One2loadup.com.mkv
Format : Matroska
Format version : Version 4
File size : 7.17 GiB
Duration : 1 h 36 min
Overall bit rate : 10.6 Mb/s
Movie name : [FULL-HD LHQ]_3.Universal.Soldier.Regeneration.2009.1080p.DTS.x264.One2loadup.com
Encoded date : UTC 2016-05-22 18:19:51
Writing application : mkvmerge v8.2.0 (‘World of Adventure’) 64bit
Writing library : libebml v1.3.1 + libmatroska v1.4.2

Video
ID : 1
Format : AVC
Format/Info : Advanced Video Codec
Format profile : [email protected]
Format settings : CABAC / 4 Ref Frames
Format settings, CABAC : Yes
Format settings, ReFrames : 4 frames
Codec ID : V_MPEG4/ISO/AVC
Duration : 1 h 36 min
Bit rate : 8 173 kb/s
Width : 1 920 pixels
Height : 816 pixels
Display aspect ratio : 2.35:1
Frame rate mode : Constant
Frame rate : 23.976 (24000/1001) FPS
Color space : YUV
Chroma subsampling : 4:2:0
Bit depth : 8 bits
Scan type : Progressive
Bits/(Pixel*Frame) : 0.218
Stream size : 5.53 GiB (77%)
Title : [FULL-HD LHQ]_3.Universal.Soldier.Regeneration.2009.1080p.DTS.x264.One2loadup.com
Writing library : x264 core 84 r1416 fcf70c2
Encoding settings : cabac=1 / ref=5 / deblock=1:0:0 / analyse=0x3:0x113 / me=umh / subme=7 / psy=1 / psy_rd=1.0:0.0 / mixed_ref=1 / me_range=16 / chroma_me=1 / trellis=1 / 8x8dct=1 / cqm=0 / deadzone=21,11 / fast_pskip=0 / chroma_qp_offset=-2 / threads=12 / sliced_threads=0 / nr=0 / decimate=1 / mbaff=0 / constrained_intra=0 / bframes=3 / b_pyramid=1 / b_adapt=1 / b_bias=0 / direct=1 / wpredb=1 / wpredp=2 / keyint=250 / keyint_min=25 / scenecut=40 / intra_refresh=0 / rc_lookahead=40 / rc=2pass / mbtree=1 / bitrate=8173 / ratetol=1.0 / qcomp=0.60 / qpmin=10 / qpmax=51 / qpstep=4 / cplxblur=20.0 / qblur=0.5 / ip_ratio=1.40 / aq=1:1.00
Language : English
Default : Yes
Forced : No

Audio #1
ID : 2
Format : AC-3
Format/Info : Audio Coding 3
Commercial name : Dolby Digital
Codec ID : A_AC3
Duration : 1 h 36 min
Bit rate mode : Constant
Bit rate : 448 kb/s
Channel(s) : 6 channels
Channel layout : L R C LFE Ls Rs
Sampling rate : 48.0 kHz
Frame rate : 31.250 FPS (1536 SPF)
Bit depth : 16 bits
Compression mode : Lossy
Delay relative to video : 2 s 200 ms
Stream size : 310 MiB (4%)
Title : Thai AC-3
Language : Thai
Service kind : Complete Main
Default : Yes
Forced : Yes

Audio #2
ID : 3
Format : DTS
Format/Info : Digital Theater Systems
Codec ID : A_DTS
Duration : 1 h 36 min
Bit rate mode : Constant
Bit rate : 1 509 kb/s
Channel(s) : 6 channels
Channel layout : C L R Ls Rs LFE
Sampling rate : 48.0 kHz
Frame rate : 93.750 FPS (512 SPF)
Bit depth : 24 bits
Compression mode : Lossy
Stream size : 1.02 GiB (14%)
Title : Eng DTS
Language : English
Default : No
Forced : No

Audio #3
ID : 4
Format : AC-3
Format/Info : Audio Coding 3
Commercial name : Dolby Digital
Codec ID : A_AC3
Duration : 1 h 36 min
Bit rate mode : Constant
Bit rate : 448 kb/s
Channel(s) : 6 channels
Channel layout : L R C LFE Ls Rs
Sampling rate : 48.0 kHz
Frame rate : 31.250 FPS (1536 SPF)
Bit depth : 16 bits
Compression mode : Lossy
Delay relative to video : 2 s 200 ms
Stream size : 310 MiB (4%)
Title : Eng AC-3
Language : English
Service kind : Complete Main
Default : No
Forced : No

Text #1
ID : 5
Format : VobSub
Muxing mode : zlib
Codec ID : S_VOBSUB
Codec ID/Info : Picture based subtitle format used on DVDs
Duration : 1 h 32 min
Bit rate : 1 617 b/s
Count of elements : 738
Stream size : 1.08 MiB (0%)
Title : Thai
Language : Thai
Default : No
Forced : No

Text #2
ID : 6
Format : VobSub
Muxing mode : zlib
Codec ID : S_VOBSUB
Codec ID/Info : Picture based subtitle format used on DVDs
Duration : 1 h 16 min
Bit rate : 1 153 b/s
Count of elements : 489
Stream size : 644 KiB (0%)
Title : Eng
Language : English
Default : No
Forced : No

Text #3
ID : 7
Format : UTF-8
Codec ID : S_TEXT/UTF8
Codec ID/Info : UTF-8 Plain Text
Duration : 1 h 18 min
Bit rate : 38 b/s
Count of elements : 569
Stream size : 22.1 KiB (0%)
Title : Eng SRT
Language : English
Default : No
Forced : No

DOWNLOAD


PART01 |||| PART02 |||| PART03 |||| PART04 |||| PART05

PART06 |||| PART07 |||| PART08

PART01 |||| PART02 |||| PART03 |||| PART04 |||| PART05

PART06 |||| PART07 |||| PART08

PART01 |||| PART02 |||| PART03 |||| PART04 |||| PART05

PART06 |||| PART07 |||| PART08

PART01 |||| PART02 |||| PART03 |||| PART04 |||| PART05

PART06 |||| PART07 |||| PART08


Leave A Reply

Your email address will not be published.

%d bloggers like this: