[FULL-HD LHQ] Universal Soldier: Day of Reckoning (2012) 2 คนไม่ใช่คน สงครามวันดับแค้น ภาค 4 [1080p] [พากย์ไทย 5.1 + เสียงอังกฤษ DTS] [บรรยายไทย + อังกฤษ] [เสียงไทย + ซับไทย] [OPENLOAD]

0

โหลดหนัง  Universal Soldier: Day of Reckoning (2012) 2 คนไม่ใช่คน สงครามวันดับแค้น ภาค 4

เรื่องย่อ Universal Soldier: Day of Reckoning (2012) 2 คนไม่ใช่คน สงครามวันดับแค้น ภาค 4

ลุค เดเวอโรซ์ ผู้เป็นยูนิเวอร์แซล โซลเยอร์ รุ่นดั้งเดิมจะกลับมาสร้างความตื่นเต้นให้คนดูอีกครั้ง ด้วยการร่วมมือกับมนุษย์โคลนของ แอนดรูวว์ สก็อต เพื่อสร้างความหายนะให้แก่ชีวิตของยูนิเวอร์แซล โซลเยอร์อย่างจอห์นที่พวกเขาทั้งคู่ชิงชังนั่นเอง !!!

Complete name : C:\Users\Administrator\Desktop\[FULL-HD LHQ]_4.Universal.Soldier.Day.Of.Reckoning.2012.1080p.DTS.x264.One2loadup.com.mkv
Format : Matroska
Format version : Version 4
File size : 8.62 GiB
Duration : 1 h 53 min
Overall bit rate : 10.9 Mb/s
Movie name : [FULL-HD LHQ]_4.Universal.Soldier.Day.Of.Reckoning.2012.1080p.DTS.x264.One2loadup.com
Encoded date : UTC 2016-05-19 07:27:05
Writing application : mkvmerge v8.2.0 (‘World of Adventure’) 64bit
Writing library : libebml v1.3.1 + libmatroska v1.4.2

Video
ID : 1
Format : AVC
Format/Info : Advanced Video Codec
Format profile : [email protected]
Format settings : CABAC / 5 Ref Frames
Format settings, CABAC : Yes
Format settings, ReFrames : 5 frames
Codec ID : V_MPEG4/ISO/AVC
Duration : 1 h 53 min
Bit rate : 8 498 kb/s
Width : 1 920 pixels
Height : 816 pixels
Display aspect ratio : 2.35:1
Frame rate mode : Constant
Frame rate : 23.976 (24000/1001) FPS
Color space : YUV
Chroma subsampling : 4:2:0
Bit depth : 8 bits
Scan type : Progressive
Bits/(Pixel*Frame) : 0.226
Stream size : 6.75 GiB (78%)
Title : [FULL-HD LHQ]_4.Universal.Soldier.Day.Of.Reckoning.2012.1080p.DTS.x264.One2loadup.com
Writing library : x264 core 129 r2230 1cffe9f
Encoding settings : cabac=1 / ref=5 / deblock=1:0:0 / analyse=0x3:0x113 / me=umh / subme=8 / psy=1 / psy_rd=1.00:0.00 / mixed_ref=1 / me_range=16 / chroma_me=1 / trellis=1 / 8x8dct=1 / cqm=0 / deadzone=21,11 / fast_pskip=1 / chroma_qp_offset=-2 / threads=12 / lookahead_threads=2 / sliced_threads=0 / nr=0 / decimate=1 / interlaced=0 / bluray_compat=0 / constrained_intra=0 / bframes=3 / b_pyramid=2 / b_adapt=2 / b_bias=0 / direct=3 / weightb=1 / open_gop=0 / weightp=2 / keyint=240 / keyint_min=24 / scenecut=40 / intra_refresh=0 / rc_lookahead=50 / rc=2pass / mbtree=1 / bitrate=8498 / ratetol=1.0 / qcomp=0.60 / qpmin=0 / qpmax=69 / qpstep=4 / cplxblur=20.0 / qblur=0.5 / ip_ratio=1.40 / aq=1:1.00
Language : English
Default : Yes
Forced : No

Audio #1
ID : 2
Format : AC-3
Format/Info : Audio Coding 3
Commercial name : Dolby Digital
Codec ID : A_AC3
Duration : 1 h 53 min
Bit rate mode : Constant
Bit rate : 384 kb/s
Channel(s) : 6 channels
Channel layout : L R C LFE Ls Rs
Sampling rate : 48.0 kHz
Frame rate : 31.250 FPS (1536 SPF)
Bit depth : 16 bits
Compression mode : Lossy
Delay relative to video : 16 ms
Stream size : 312 MiB (4%)
Title : Thai AC-3
Language : Thai
Service kind : Complete Main
Default : Yes
Forced : Yes

Audio #2
ID : 3
Format : DTS
Format/Info : Digital Theater Systems
Codec ID : A_DTS
Duration : 1 h 53 min
Bit rate mode : Constant
Bit rate : 1 509 kb/s
Channel(s) : 6 channels
Channel layout : C L R Ls Rs LFE
Sampling rate : 48.0 kHz
Frame rate : 93.750 FPS (512 SPF)
Bit depth : 24 bits
Compression mode : Lossy
Stream size : 1.20 GiB (14%)
Title : Eng DTS
Language : English
Default : No
Forced : No

Audio #3
ID : 4
Format : AC-3
Format/Info : Audio Coding 3
Commercial name : Dolby Digital
Codec ID : A_AC3
Duration : 1 h 53 min
Bit rate mode : Constant
Bit rate : 448 kb/s
Channel(s) : 6 channels
Channel layout : L R C LFE Ls Rs
Sampling rate : 48.0 kHz
Frame rate : 31.250 FPS (1536 SPF)
Bit depth : 16 bits
Compression mode : Lossy
Stream size : 364 MiB (4%)
Title : Eng AC-3
Language : English
Service kind : Complete Main
Default : No
Forced : No

Text #1
ID : 5
Format : VobSub
Muxing mode : zlib
Codec ID : S_VOBSUB
Codec ID/Info : Picture based subtitle format used on DVDs
Duration : 1 h 44 min
Bit rate : 2 101 b/s
Count of elements : 578
Stream size : 1.58 MiB (0%)
Title : Thai
Language : Thai
Default : No
Forced : No

Text #2
ID : 6
Format : VobSub
Muxing mode : zlib
Codec ID : S_VOBSUB
Codec ID/Info : Picture based subtitle format used on DVDs
Duration : 1 h 44 min
Bit rate : 2 101 b/s
Count of elements : 578
Stream size : 1.58 MiB (0%)
Title : Thai Out
Language : Thai
Default : No
Forced : No

Text #3
ID : 7
Format : VobSub
Muxing mode : zlib
Codec ID : S_VOBSUB
Codec ID/Info : Picture based subtitle format used on DVDs
Duration : 1 h 44 min
Bit rate : 2 100 b/s
Count of elements : 578
Stream size : 1.58 MiB (0%)
Title : Thai Yellow
Language : Thai
Default : No
Forced : No

Text #4
ID : 8
Format : PGS
Muxing mode : zlib
Codec ID : S_HDMV/PGS
Codec ID/Info : Picture based subtitle format used on BDs/HD-DVDs
Duration : 1 h 44 min
Bit rate : 6 883 b/s
Count of elements : 1156
Stream size : 5.16 MiB (0%)
Title : Thai PGS
Language : Thai
Default : No
Forced : No

Text #5
ID : 9
Format : VobSub
Muxing mode : zlib
Codec ID : S_VOBSUB
Codec ID/Info : Picture based subtitle format used on DVDs
Duration : 1 h 44 min
Bit rate : 845 b/s
Count of elements : 578
Stream size : 648 KiB (0%)
Title : Eng
Language : English
Default : No
Forced : No

Menu #1
00:00:00.000 : en:00:00:00.000
00:06:36.104 : en:00:06:36.104
00:16:42.460 : en:00:16:42.460
00:23:33.078 : en:00:23:33.078
00:29:24.012 : en:00:29:24.012
00:37:57.192 : en:00:37:57.192
00:49:45.983 : en:00:49:45.983
00:59:27.230 : en:00:59:27.230
01:08:42.452 : en:01:08:42.452
01:18:18.903 : en:01:18:18.903
01:27:51.892 : en:01:27:51.892
01:34:59.861 : en:01:34:59.861

Menu #2
00:00:00.000 : en:00:00:00.000
00:06:36.104 : en:00:06:36.104
00:16:42.460 : en:00:16:42.460
00:23:33.078 : en:00:23:33.078
00:29:24.012 : en:00:29:24.012
00:37:57.192 : en:00:37:57.192
00:49:45.983 : en:00:49:45.983
00:59:27.230 : en:00:59:27.230
01:08:42.452 : en:01:08:42.452
01:18:18.903 : en:01:18:18.903
01:27:51.892 : en:01:27:51.892
01:34:59.861 : en:01:34:59.861

DOWNLOAD


PART01 |||| PART02 |||| PART03 |||| PART04 |||| PART05

PART06 |||| PART07 |||| PART08 |||| PART09

PART01 |||| PART02 |||| PART03 |||| PART04 |||| PART05

PART06 |||| PART07 |||| PART08 |||| PART09

PART01 |||| PART02 |||| PART03 |||| PART04 |||| PART05

PART06 |||| PART07 |||| PART08 |||| PART09

PART01 |||| PART02 |||| PART03 |||| PART04 |||| PART05

PART06 |||| PART07 |||| PART08 |||| PART09


Leave A Reply

Your email address will not be published.

%d bloggers like this: