[Concert] บันทึกการแสดงสด คอนเสิร์ต 25 ปี ไมโคร ร็อค เล็ก เล็ก Returns (2010) [720p] [ONE2UP]

0

โหลดหนัง  บันทึกการแสดงสด คอนเสิร์ต 25 ปี ไมโคร ร็อค เล็ก เล็ก Returns (2010)

เรื่องย่อ บันทึกการแสดงสด คอนเสิร์ต 25 ปี ไมโคร ร็อค เล็ก เล็ก Returns (2010)

วันที่ 30-31 มกราคม 2553 ณ อิมแพ็ค อารีน่า เมืองทองธานี
ศิลปินรับเชิญ : บิลลี่ โอแกน , ใหม่ เจริญปุระ , เสก โลโซ , แด๊กซ์ บิ๊กแอส

– หมื่นฟาเรนไฮต์
– ส้มหล่น
– เอาไปเลย
– อย่าดีกว่า
– ไว้ใจ
– ใจโทรมๆเ
– เติมน้ำมัน
– ม้าเหล็ก
– ดนตรีในดวงใจ
– อู๊ดกับแอ๊ด : หนุ่ย ไมโคร & บิลลี่ โอแกน
– คนไม่มีสิทธิ์ : บิลลี่ โอแกน
– ฟ้าคงสะใจ : บิลลี่ โอแกน
– จำฝังใจ
– ยังไงก็โดน : หนุ่ย ไมโคร & ใหม่ เจริญปุระ
– รุนแรงเหลือเกิน : ใหม่ เจริญปุระ
– สุดฤทธิ์สุดเดช : ใหม่ เจริญปุระ
– รักซะให้เข็ด : กบ ไมโคร
– รักปอนปอน : กบ ไมโคร
– พายุ + หยุดมันเอาไว้
– อยากจะบอกใครสักคน
– วัตถุไวไฟ
– เล่นของสูง : หนุ่ย ไมโคร & แด๊กซ์ บิ๊กแอส
– เรามันก็คน : แด๊กซ์ บิ๊กแอส
– ฝันที่อยู่ไกล : หนุ่ย ไมโคร & เสก โลโซ
– ซมซาน : หนุ่ย ไมโคร & เสก โลโซ
– ช้าง…คนไทยหัวใจเดียวกัน : หนุ่ย ไมโคร & เสก โลโซ & แด๊กซ์ บิ๊กแอส
– แผลในใจ
– เสียมั้ย
– มันก็ยัง งง งง
– บอกมาคำเดียว
– ใจโทรมๆเ.(Soul Version).
– เอาไปเลย

Complete name : ไมโคร คอนเสิร์ต 25 ปี ไมโคร ร็อค เล็ก เล็ก Returns.mkv
Format : Matroska
Format version : Version 2
File size : 3.75 GiB
Duration : 2 h 55 min
Overall bit rate mode : Variable
Overall bit rate : 3 069 kb/s
Movie name : [CONCERT]_25.Years.s.Micro.Rock.Lek.Lek.Returns.2010.720p.DVDRip.One2loadup.com
Encoded date : UTC 2019-05-25 15:50:07
Writing application : MakeMKV v1.14.3 win(x64-release)
Writing library : libmakemkv v1.14.3 (1.3.5/1.4.7) win(x64-release)

Video
ID : 1
ID in the original source m : 224 (0xE0)
Format : MPEG Video
Format version : Version 2
Format profile : [email protected]
Format settings : CustomMatrix / BVOP
Format settings, BVOP : Yes
Format settings, Matrix : Custom
Format settings, GOP : M=3, N=13
Format settings, picture st : Frame
Codec ID : V_MPEG2
Codec ID/Info : MPEG 1 or 2 Video
Duration : 2 h 55 min
Bit rate mode : Variable
Bit rate : 2 423 kb/s
Maximum bit rate : 6 900 kb/s
Width : 720 pixels
Height : 576 pixels
Display aspect ratio : 4:3
Frame rate mode : Constant
Frame rate : 25.000 FPS
Standard : PAL
Color space : YUV
Chroma subsampling : 4:2:0
Bit depth : 8 bits
Scan type : Interlaced
Scan order : Top Field First
Compression mode : Lossy
Bits/(Pixel*Frame) : 0.234
Time code of first frame : 00:00:00:00
Time code source : Group of pictures header
GOP, Open/Closed : Closed
Stream size : 2.96 GiB (79%)
Title : [CONCERT]_25.Years.s.Micro.Rock.Lek.Lek.Returns.2010.720p.DVDRip.One2loadup.com
Writing library : TMPGEnc XPress 4.7.3.292
Language : English
Default : No
Forced : No
Color primaries : BT.601 PAL
Transfer characteristics : BT.470 System B/G
Matrix coefficients : BT.470 System B/G
Original source medium : DVD-Video

Audio #1
ID : 2
ID in the original source m : 189 (0xBD)128 (0x80)
Format : AC-3
Format/Info : Audio Coding 3
Commercial name : Dolby Digital
Codec ID : A_AC3
Duration : 2 h 55 min
Bit rate mode : Constant
Bit rate : 192 kb/s
Channel(s) : 2 channels
Channel layout : L R
Sampling rate : 48.0 kHz
Frame rate : 31.250 FPS (1536 SPF)
Bit depth : 16 bits
Compression mode : Lossy
Delay relative to video : 16 ms
Stream size : 240 MiB (6%)
Title : Stereo
Language : Thai
Service kind : Complete Main
Default : Yes
Forced : No
Original source medium : DVD-Video

Audio #2
ID : 3
ID in the original source m : 189 (0xBD)129 (0x81)
Format : AC-3
Format/Info : Audio Coding 3
Commercial name : Dolby Digital
Codec ID : A_AC3
Duration : 2 h 55 min
Bit rate mode : Constant
Bit rate : 448 kb/s
Channel(s) : 6 channels
Channel layout : L R C LFE Ls Rs
Sampling rate : 48.0 kHz
Frame rate : 31.250 FPS (1536 SPF)
Bit depth : 16 bits
Compression mode : Lossy
Delay relative to video : 16 ms
Stream size : 561 MiB (15%)
Title : Surround 5.1
Language : Thai
Service kind : Complete Main
Default : No
Forced : No
Original source medium : DVD-Video

Menu
00:00:00.000 : en:Chapter 01
00:07:41.440 : en:Chapter 02
00:11:35.880 : en:Chapter 03
00:16:03.320 : en:Chapter 04
00:19:30.880 : en:Chapter 05
00:24:03.120 : en:Chapter 06
00:29:36.520 : en:Chapter 07
00:34:17.120 : en:Chapter 08
00:39:12.200 : en:Chapter 09
00:46:01.880 : en:Chapter 10
00:53:32.240 : en:Chapter 11
00:57:49.840 : en:Chapter 12
01:02:34.800 : en:Chapter 13
01:07:24.040 : en:Chapter 14
01:13:36.680 : en:Chapter 15
01:18:35.240 : en:Chapter 16
01:23:39.200 : en:Chapter 17
01:29:03.640 : en:Chapter 18
01:34:53.160 : en:Chapter 19
01:48:59.840 : en:Chapter 20
01:53:03.720 : en:Chapter 21
01:57:20.760 : en:Chapter 22
02:02:15.200 : en:Chapter 23
02:07:41.520 : en:Chapter 24
02:13:51.800 : en:Chapter 25
02:19:05.080 : en:Chapter 26
02:24:20.000 : en:Chapter 27
02:28:45.800 : en:Chapter 28
02:33:18.760 : en:Chapter 29
02:39:28.600 : en:Chapter 30
02:42:16.320 : en:Chapter 31
02:47:36.040 : en:Chapter 32

DOWNLOAD


PART01 |||| PART02 |||| PART03 |||| PART04

PART01 |||| PART02 |||| PART03 |||| PART04

PART01 |||| PART02 |||| PART03 |||| PART04

PART01 |||| PART02 |||| PART03 |||| PART04


Leave A Reply

Your email address will not be published.

%d bloggers like this: