โหลดหนัง HD MINI-HD SUPER-HQ Full-HD 1080p VIP Master Zoom ซูม หนังใหม่ ออนไลน์ มาสเตอร์ ไทย จีน ฝรั่ง การ์ตูน

[ฝรั่ง] Call Me by Your Name (2017) คอล มี บาย ยัวร์ เนม [1080p] [พากย์อังกฤษ 5.1] [Soundtrack บรรยายไทย] [เสียงอังกฤษ + ซับไทย] [ONE2UP]

0

โหลดหนัง  Call Me by Your Name (2017) คอล มี บาย ยัวร์ เนม

เรื่องย่อ Call Me by Your Name (2017) คอล มี บาย ยัวร์ เนม

เอลิโอ ยังจำหน้าร้อนปี 1983 ได้เป็นอย่างดี ตอนนั้นเขาเพิ่งอายุ 17 เป็นธรรมเนียมปฏิบัติที่พ่อกับแม่จะต้องพาเขาไปใช้เว ลาพักผ่อนช่วงวันหยุดยาวที่คฤหาสน์เก่าแก่แห่งหนึ่งใ นทางตอนเหนือของอิตาลี ในขณะที่พ่อหมกมุ่นกับการทำวิจัย และแม่ก็ต้องเอางานแปลมาทำด้วย

เอลิโอไม่กิจกรรมอะไรเป็นชิ้นเป็นอันนอกจากการเที่ยว เตร่ไปตามชนบทรอบๆ ว่างก็ซ้อมดนตรี อ่านหนังสือ และไปว่ายน้ำ การเกิดมาในบ้านที่มีพ่อกับแม่เป็นนักวิชาการ หนำซ้ำยังเป็นลูกครึ่งอเมริกัน-อิตาเลี่ยน ทำให้เอลิโอรู้สึกว่าตัวเอง “รู้รอบ” มากกว่าเด็กวัยรุ่นในช่วงวัยเดียวกัน เขาอ่านหนังสือเยอะกว่าคนอื่น ฟังเพลงเยอะกว่าคนอื่น มีความอารยะและวุฒิภาวะสูงกว่าเด็กอายุ 17 ทั่วไป แต่การปรากฏตัวของนักศึกษาชาวอเมริกันวัย 24 คนหนึ่งชื่อ โอลิเวอร์ ผู้ซึ่งเป็นแขกของที่บ้าน เพราะต้องมาเป็นผู้ช่วยของพ่อเขาในการทำงานวิจัย ทำให้เอลิโอตระหนักได้ว่า ตนเองไม่ได้รู้ไปเสียทุกอย่างหรอก

โอลิเวอร์ไม่เหมือนกับนักเรียนคนอื่นๆ ของพ่อที่เอลิโอเคยพบ มีอะไรสักอย่างในตัวของเขาที่ดึงดูดเอลิโอให้เข้าไปห า และช่วงไม่กี่สัปดาห์นั้น ทั้งเอลิโอและโอลิเวอร์ก็ได้ก้าวไปยังเขตแดนที่พวกเข าต่างไม่เคยย่างกรายเข้าไปมาก่อน มันคือเขตแดนของ “ความรัก” ความรักที่จะสร้างความเว้าแหว่งที่ติดตัวเอลิโอไปตรา บนานเท่านาน ไม่ว่าหน้าร้อนครั้งนั้นมันจะผ่านไปกี่ปีแล้วก็ตาม!! !

Complete name : Call.Me.By.Your.Name.2017.1080p.WEB-DL.DD5.1.H264.Subthai.One2loadup.com.mkv
Format : Matroska
Format version : Version 4 / Version 2
File size : 5.21 GiB
Duration : 2 h 12 min
Overall bit rate : 5 644 kb/s
Movie name : Call.Me.By.Your.Name.2017.1080p.WEB-DL.DD5.1.H264.Subthai.One2loadup.com
Encoded date : UTC 2018-03-04 13:35:31
Writing application : mkvmerge v21.0.0 (‘Tardigrades Will Inherit The Earth’) 64-bit
Writing library : libebml v1.3.5 + libmatroska v1.4.8

Video
ID : 1
Format : AVC
Format/Info : Advanced Video Codec
Format profile : [email protected]
Format settings : CABAC / 4 Ref Frames
Format settings, CABAC : Yes
Format settings, ReFrames : 4 frames
Codec ID : V_MPEG4/ISO/AVC
Duration : 2 h 12 min
Bit rate : 5 186 kb/s
Width : 1 920 pixels
Height : 1 032 pixels
Display aspect ratio : 1.85:1
Frame rate mode : Constant
Frame rate : 23.976 FPS
Color space : YUV
Chroma subsampling : 4:2:0
Bit depth : 8 bits
Scan type : Progressive
Bits/(Pixel*Frame) : 0.109
Stream size : 4.79 GiB (92%)
Title : Call.Me.By.Your.Name.2017.1080p.WEB-DL.DD5.1.H264.Subthai.One2loadup.com
Language : English
Default : Yes
Forced : No
Color range : Limited
Color primaries : BT.709
Transfer characteristics : BT.709
Matrix coefficients : BT.709

Audio
ID : 2
Format : AC-3
Format/Info : Audio Coding 3
Codec ID : A_AC3
Duration : 2 h 11 min
Bit rate mode : Constant
Bit rate : 384 kb/s
Channel(s) : 6 channels
Channel positions : Front: L C R, Side: L R, LFE
Sampling rate : 48.0 kHz
Frame rate : 31.250 FPS (1536 SPF)
Bit depth : 16 bits
Compression mode : Lossy
Stream size : 363 MiB (7%)
Title : Call.Me.By.Your.Name.2017.1080p.WEB-DL.DD5.1.H264.Subthai.One2loadup.com
Language : English
Service kind : Complete Main
Default : Yes
Forced : No

Text #1
ID : 3
Format : VobSub
Codec ID : S_VOBSUB
Codec ID/Info : Picture based subtitle format used on DVDs
Duration : 2 h 9 min
Bit rate : 1 589 b/s
Count of elements : 1019
Stream size : 1.47 MiB (0%)
Title : Thai 480p
Language : Thai
Default : No
Forced : No

Text #2
ID : 4
Format : VobSub
Codec ID : S_VOBSUB
Codec ID/Info : Picture based subtitle format used on DVDs
Duration : 2 h 9 min
Bit rate : 3 109 b/s
Count of elements : 1019
Stream size : 2.87 MiB (0%)
Title : Thai 720p
Language : Thai
Default : No
Forced : No

Text #3
ID : 5
Format : VobSub
Codec ID : S_VOBSUB
Codec ID/Info : Picture based subtitle format used on DVDs
Duration : 2 h 9 min
Bit rate : 5 557 b/s
Count of elements : 1019
Stream size : 5.14 MiB (0%)
Title : Thai 1080p
Language : Thai
Default : Yes
Forced : Yes

Text #4
ID : 6
Format : VobSub
Codec ID : S_VOBSUB
Codec ID/Info : Picture based subtitle format used on DVDs
Duration : 2 h 9 min
Bit rate : 5 546 b/s
Count of elements : 1019
Stream size : 5.13 MiB (0%)
Title : Thai 1080p Yellow
Language : Thai
Default : No
Forced : No

Text #5
ID : 7
Format : PGS
Codec ID : S_HDMV/PGS
Codec ID/Info : Picture based subtitle format used on BDs/HD-DVDs
Duration : 2 h 9 min
Bit rate : 21.8 kb/s
Count of elements : 2038
Stream size : 20.2 MiB (0%)
Title : Thai PGS
Language : Thai
Default : No
Forced : No

Text #6
ID : 8
Format : PGS
Codec ID : S_HDMV/PGS
Codec ID/Info : Picture based subtitle format used on BDs/HD-DVDs
Duration : 2 h 9 min
Bit rate : 21.8 kb/s
Count of elements : 2038
Stream size : 20.2 MiB (0%)
Title : Thai PGS OUT
Language : Thai
Default : No
Forced : No

Text #7
ID : 9
Format : PGS
Codec ID : S_HDMV/PGS
Codec ID/Info : Picture based subtitle format used on BDs/HD-DVDs
Duration : 2 h 9 min
Bit rate : 14.1 kb/s
Count of elements : 2034
Stream size : 13.0 MiB (0%)
Title : Thai Bluray Master
Language : Thai
Default : No
Forced : No

Text #8
ID : 10
Format : UTF-8
Codec ID : S_TEXT/UTF8
Codec ID/Info : UTF-8 Plain Text
Duration : 2 h 8 min
Bit rate : 31 b/s
Count of elements : 1096
Stream size : 29.9 KiB (0%)
Title : CC
Language : English
Default : No
Forced : No

Menu
00:00:00.000 : en:1
00:07:28.740 : en:2
00:16:13.598 : en:3
00:24:55.661 : en:4
00:32:31.700 : en:5
00:42:15.532 : en:6
00:51:08.147 : en:7
01:00:12.900 : en:8
01:07:01.099 : en:9
01:16:49.604 : en:10
01:23:54.904 : en:11
01:31:19.973 : en:12
01:37:58.037 : en:13
01:46:56.491 : en:14
01:54:28.275 : en:15
02:02:31.299 : en:16

 


PART01 |||| PART02 |||| PART03 |||| PART04 |||| PART05 |||| PART06

PART01 |||| PART02 |||| PART03 |||| PART04 |||| PART05 |||| PART06

PART01 |||| PART02 |||| PART03 |||| PART04 |||| PART05 |||| PART06

PART01 |||| PART02 |||| PART03 |||| PART04 |||| PART05 |||| PART06


Leave A Reply

Your email address will not be published.

%d bloggers like this: