เว็บโหลดหนัง HD MINI-HD SUPER-HQ Full-HD 1080p One2up VIP Cornfile Mekafile Master Zoom ซูม หนังใหม่ ออนไลน์ มาสเตอร์ ไทย จีน ฝรั่ง การ์ตูน

[ฝรั่ง] Black Panther (2018) แบล็ค แพนเธอร์ [1080p] [พากย์ไทยโรง 5.1 + เสียงอังกฤษ 5.1] [บรรยายอังกฤษ] [เสียงไทยโรง + ซับอังกฤษ] [ONE2UP]

0

โหลดหนัง  Black Panther (2018) แบล็ค แพนเธอร์ 

เรื่องย่อ Black Panther (2018) แบล็ค แพนเธอร์

เรื่องราวต่อมา ของกษัตริย์องค์ใหม่ต้องรับมือกับศัตรูคนใหม่และศัตร ูทางการเมืองเพื่อปกป้องประเทศ Wakada ของเขาให้รอดพ้นจากสงครามโลกครั้งใหม่ โดยภาพยนตร์เรื่องนี้ได้นักแสดงผิวสีมากมายฝีมือ เช่น Michael B. Jordan, Danai Gurira Forest Whitaker นอกจากนี้ยังได้นักแสดงดีกรีรางวัลออสการ์อย่าง Lupita Nyong’o มาร่วมแสดงในเรื่องนี้ด้วย กำกับโดย Ryan Coogler

Complete name : Black.Panther.2018.1080p.BRRip.X264.AC3.THR5.1.One2loadup.com.mkv
Format : Matroska
Format version : Version 4 / Version 2
File size : 4.58 GiB
Duration : 2 h 14 min
Overall bit rate : 4 878 kb/s
Movie name : Black.Panther.2018.1080p.BRRip.X264.AC3.THR5.1.One2loadup.com
Encoded date : UTC 2018-05-02 14:56:36
Writing application : mkvmerge v9.9.0 (‘Pick Up’) 64bit
Writing library : libebml v1.3.4 + libmatroska v1.4.5
Cover : Yes
Attachments : cover.jpg

Video
ID : 1
Format : AVC
Format/Info : Advanced Video Codec
Format profile : [email protected]
Format settings : CABAC / 4 Ref Frames
Format settings, CABAC : Yes
Format settings, ReFrames : 4 frames
Codec ID : V_MPEG4/ISO/AVC
Duration : 2 h 14 min
Bit rate : 4 000 kb/s
Width : 1 920 pixels
Height : 808 pixels
Display aspect ratio : 2.40:1
Frame rate mode : Constant
Frame rate : 23.976 (24000/1001) FPS
Color space : YUV
Chroma subsampling : 4:2:0
Bit depth : 8 bits
Scan type : Progressive
Bits/(Pixel*Frame) : 0.108
Stream size : 3.74 GiB (82%)
Title : Black.Panther.2018.1080p.BRRip.X264.AC3.THR5.1.One2loadup.com
Writing library : x264 core 148 r2708 86b7198
Encoding settings : cabac=1 / ref=1 / deblock=1:0:0 / analyse=0x3:0x113 / me=hex / subme=2 / psy=1 / psy_rd=1.00:0.00 / mixed_ref=0 / me_range=16 / chroma_me=1 / trellis=0 / 8x8dct=1 / cqm=0 / deadzone=21,11 / fast_pskip=1 / chroma_qp_offset=0 / threads=18 / lookahead_threads=6 / sliced_threads=0 / nr=0 / decimate=1 / interlaced=0 / bluray_compat=0 / constrained_intra=0 / bframes=3 / b_pyramid=2 / b_adapt=1 / b_bias=0 / direct=1 / weightb=1 / open_gop=0 / weightp=1 / keyint=240 / keyint_min=24 / scenecut=40 / intra_refresh=0 / rc_lookahead=10 / rc=abr / mbtree=1 / bitrate=4000 / ratetol=1.0 / qcomp=0.60 / qpmin=0 / qpmax=69 / qpstep=4 / vbv_maxrate=62500 / vbv_bufsize=78125 / nal_hrd=none / filler=0 / ip_ratio=1.40 / aq=1:1.00
Language : English
Default : Yes
Forced : No
Color range : Limited
Color primaries : BT.709
Transfer characteristics : BT.709
Matrix coefficients : BT.709

Audio #1
ID : 2
Format : AC-3
Format/Info : Audio Coding 3
Codec ID : A_AC3
Duration : 2 h 14 min
Bit rate mode : Constant
Bit rate : 448 kb/s
Channel(s) : 6 channels
Channel positions : Front: L C R, Side: L R, LFE
Sampling rate : 48.0 kHz
Frame rate : 31.250 FPS (1536 SPF)
Bit depth : 16 bits
Compression mode : Lossy
Delay relative to video : -5 ms
Stream size : 431 MiB (9%)
Title : THR 5.1 Modified By ~Mr.Captain~
Language : Thai
Service kind : Complete Main
Default : Yes
Forced : Yes

Audio #2
ID : 3
Format : AC-3
Format/Info : Audio Coding 3
Codec ID : A_AC3
Duration : 2 h 14 min
Bit rate mode : Constant
Bit rate : 448 kb/s
Channel(s) : 6 channels
Channel positions : Front: L C R, Side: L R, LFE
Sampling rate : 48.0 kHz
Frame rate : 31.250 FPS (1536 SPF)
Bit depth : 16 bits
Compression mode : Lossy
Delay relative to video : -5 ms
Stream size : 431 MiB (9%)
Title : English 5.1
Language : English
Service kind : Complete Main
Default : No
Forced : No

Text
ID : 4
Format : UTF-8
Codec ID : S_TEXT/UTF8
Codec ID/Info : UTF-8 Plain Text
Duration : 2 h 10 min
Bit rate : 1 b/s
Count of elements : 68
Stream size : 1.15 KiB (0%)
Title : English Srt
Language : English
Default : No
Forced : No

Menu
00:00:00.000 : :Chapter 1
00:06:56.291 : :Chapter 2
00:12:02.805 : :Chapter 3
00:19:12.360 : :Chapter 4
00:28:32.961 : :Chapter 5
00:33:11.698 : :Chapter 6
00:40:57.497 : :Chapter 7
00:48:34.036 : :Chapter 8
00:53:46.098 : :Chapter 9
01:01:57.339 : :Chapter 10
01:08:33.026 : :Chapter 11
01:16:46.769 : :Chapter 12
01:22:24.022 : :Chapter 13
01:31:21.434 : :Chapter 14
01:41:15.361 : :Chapter 15
01:50:56.483 : :Chapter 16
01:59:16.941 : :Chapter 17
02:02:42.897 : :Chapter 18

DOWNLOAD


PART01 |||| PART02 |||| PART03 |||| PART04 |||| PART05

PART01 |||| PART02 |||| PART03 |||| PART04 |||| PART05

PART01 |||| PART02 |||| PART03 |||| PART04 |||| PART05

PART01 |||| PART02 |||| PART03 |||| PART04 |||| PART05


Leave A Reply

Your email address will not be published.

%d bloggers like this: