โหลดหนัง HD MINI-HD SUPER-HQ Full-HD 1080p VIP Master Zoom ซูม หนังใหม่ ออนไลน์ มาสเตอร์ ไทย จีน ฝรั่ง การ์ตูน

[Mini-Super HQ ] Asura: The City Of Madness (2016) เมืองคนชั่ว (แล้วเราจะกลัวใคร) [พากย์ไทย DTS + เสียงเกาหลี DTS] [บรรยายไทย + อังกฤษ] [เสียงไทย + ซับไทย From Blu-Ray MASTER +ซับ PGS คมชัด] [ONE2UP]

0

โหลดหนัง  [Mini-Super HQ ] Asura: The City Of Madness (2016) เมืองคนชั่ว (แล้วเราจะกลัวใคร) [พากย์ไทย DTS + เสียงเกาหลี DTS] [บรรยายไทย + อังกฤษ] [เสียงไทย + ซับไทย From Blu-Ray MASTER +ซับ PGS คมชัด] [ONE2UP]

Asura: The City Of Madness นักสืบฮาน (จอง วูซอง) ผู้ที่ทำงานให้แก่นักการเมืองผู้ฉ้อฉล ปาร์ค ซองเบ (ฮวาง จองมิน) เพื่อจัดการกับปัญหาและศัตรูที่เข้ามาขวางทางสู่เส้นทางการเป็นนายกศเทศม นตรี จนกระทั่งเมื่อเขาถูกกดดันจากอัยการรัฐผู้ไร้ความเมต ตา คิม จาอิน (กวัก โดวอน)ให้โค่นล้มอำนาจของปาร์ค
นักสืบฮานจึงไหว้วานให้ ซอนมู(จู จีฮุน)รับช่วงต่อจากเขา แต่ทุกอย่างกลับผิดพลาด ฮาน ไม่มีทางเลือกอื่นนอกจากที่จะต้องเอาชีวิตรอดไปจากเก มการแย่งชิงอำนาจในเมืองอันนัม!!!

Complete name : [MINI-HD]_Asura.the.City.of.Madness.2016.1080p.BrRip.DTS.x264.One2loadup.com.mkv
Format : Matroska
Format version : Version 4 / Version 2
File size : 4.31 GiB
Duration : 2 h 13 min
Overall bit rate : 4 639 kb/s
Movie name : [MINI-HD]_Asura.the.City.of.Madness.2016.1080p.BrRip.DTS.x264.One2loadup.com
Encoded date : UTC 2010-02-22 21:41:31
Writing application : mkvmerge v5.9.0 (‘On The Loose’) built on Dec 9 2012 15:37:01
Writing library : libebml v1.3.0 + libmatroska v1.4.0

Video
ID : 1
Format : AVC
Format/Info : Advanced Video Codec
Format profile : [email protected]
Format settings, CABAC : Yes
Format settings, RefFrames : 4 frames
Codec ID : V_MPEG4/ISO/AVC
Duration : 2 h 13 min
Bit rate : 3 003 kb/s
Width : 1 920 pixels
Height : 1 036 pixels
Display aspect ratio : 1.85:1
Frame rate mode : Constant
Frame rate : 24.000 FPS
Color space : YUV
Chroma subsampling : 4:2:0
Bit depth : 8 bits
Scan type : Progressive
Bits/(Pixel*Frame) : 0.063
Stream size : 2.82 GiB (65%)
Title : [MINI-HD]_Asura.the.City.of.Madness.2016.1080p.BrRip.DTS.x264.One2loadup.com
Writing library : x264 core 130 r2273 b3065e6
Encoding settings : cabac=1 / ref=3 / deblock=1:0:0 / analyse=0x3:0x113 / me=umh / subme=11 / psy=1 / psy_rd=1.00:0.00 / mixed_ref=1 / me_range=48 / chroma_me=1 / trellis=2 / 8x8dct=1 / cqm=0 / deadzone=21,11 / fast_pskip=1 / chroma_qp_offset=-2 / threads=10 / lookahead_threads=1 / sliced_threads=0 / nr=0 / decimate=1 / interlaced=0 / bluray_compat=0 / constrained_intra=0 / bframes=3 / b_pyramid=2 / b_adapt=1 / b_bias=0 / direct=1 / weightb=1 / open_gop=0 / weightp=2 / keyint=240 / keyint_min=24 / scenecut=40 / intra_refresh=0 / rc_lookahead=40 / rc=2pass / mbtree=1 / bitrate=3003 / ratetol=1.0 / qcomp=0.60 / qpmin=0 / qpmax=69 / qpstep=4 / cplxblur=20.0 / qblur=0.5 / ip_ratio=1.40 / aq=1:1.00
Language : Korean
Default : No
Forced : No
Color range : Limited
Color primaries : BT.709
Transfer characteristics : BT.709
Matrix coefficients : BT.709

Audio #1
ID : 2
Format : DTS
Format/Info : Digital Theater Systems
Mode : 16
Format settings, Endianness : Big
Codec ID : A_DTS
Duration : 2 h 13 min
Bit rate mode : Constant
Bit rate : 755 kb/s
Channel(s) : 6 channels
Channel positions : Front: L C R, Side: L R, LFE
Sampling rate : 48.0 kHz
Frame rate : 93.750 FPS (512 SPF)
Bit depth : 24 bits
Compression mode : Lossy
Delay relative to video : 16 s 0 ms
Stream size : 718 MiB (16%)
Title : Thai BluRay Master
Language : Thai
Default : Yes
Forced : Yes

Audio #2
ID : 3
Format : DTS
Format/Info : Digital Theater Systems
Mode : 16
Format settings, Endianness : Big
Codec ID : A_DTS
Duration : 2 h 13 min
Bit rate mode : Constant
Bit rate : 755 kb/s
Channel(s) : 6 channels
Channel positions : Front: L C R, Side: L R, LFE
Sampling rate : 48.0 kHz
Frame rate : 93.750 FPS (512 SPF)
Bit depth : 24 bits
Compression mode : Lossy
Delay relative to video : 16 s 0 ms
Stream size : 718 MiB (16%)
Title : Korean DTS
Language : Korean
Default : No
Forced : No

Text #1
ID : 4
Format : VobSub
Codec ID : S_VOBSUB
Codec ID/Info : Picture based subtitle format used on DVDs
Title : Thai 480p
Language : Thai
Default : No
Forced : No

Text #2
ID : 5
Format : VobSub
Codec ID : S_VOBSUB
Codec ID/Info : Picture based subtitle format used on DVDs
Title : Thai 1080p
Language : Thai
Default : Yes
Forced : Yes

Text #3
ID : 6
Format : VobSub
Codec ID : S_VOBSUB
Codec ID/Info : Picture based subtitle format used on DVDs
Title : Thai 1080p Yellow
Language : Thai
Default : No
Forced : No

Text #4
ID : 7
Format : VobSub
Codec ID : S_VOBSUB
Codec ID/Info : Picture based subtitle format used on DVDs
Title : Thai 1080p Low
Language : Thai
Default : No
Forced : No

Text #5
ID : 8
Format : VobSub
Codec ID : S_VOBSUB
Codec ID/Info : Picture based subtitle format used on DVDs
Title : Thai 1080p BIG
Language : Thai
Default : No
Forced : No

Text #6
ID : 9
Format : PGS
Codec ID : S_HDMV/PGS
Codec ID/Info : Picture based subtitle format used on BDs/HD-DVDs
Title : Thai PGS BluRay Master
Language : Thai
Default : No
Forced : No

Text #7
ID : 10
Format : PGS
Codec ID : S_HDMV/PGS
Codec ID/Info : Picture based subtitle format used on BDs/HD-DVDs
Title : Thai PGS Low
Language : Thai
Default : No
Forced : No

Text #8
ID : 11
Format : PGS
Codec ID : S_HDMV/PGS
Codec ID/Info : Picture based subtitle format used on BDs/HD-DVDs
Title : English
Language : English
Default : No
Forced : No

Menu
00:00:00.000 : en:Chapter 1
00:13:30.018 : en:Chapter 2
00:26:48.565 : en:Chapter 3
00:38:12.290 : en:Chapter 4
00:50:22.561 : en:Chapter 5
01:04:31.034 : en:Chapter 6
01:15:42.830 : en:Chapter 7
01:24:35.571 : en:Chapter 8
01:33:19.302 : en:Chapter 9
01:48:07.856 : en:Chapter 10
01:58:24.055 : en:Chapter 11
02:09:32.098 : en:Chapter 12

 




PART01 |||| PART02 |||| PART03 |||| PART04 |||| PART05


PART01 |||| PART02 |||| PART03 |||| PART04 |||| PART05


PART01 |||| PART02 |||| PART03 |||| PART04 |||| PART05


Leave A Reply

Your email address will not be published.

%d bloggers like this: