โหลดหนัง HD MINI-HD SUPER-HQ Full-HD 1080p VIP Master Zoom ซูม หนังใหม่ ออนไลน์ มาสเตอร์ ไทย จีน ฝรั่ง การ์ตูน

[ฝรั่ง] Anon (2018) แหกกฏล่า ฆ่าล้ำอนาคต [1080p] [พากย์ไทยโรง 2.0 + เสียงอังกฤษ 5.1] [บรรยายอังกฤษ] [เสียงไทยโรง + ซับอังกฤษ] [ONE2UP]

0

โหลดหนัง  Anon (2018) แหกกฏล่า ฆ่าล้ำอนาคต

เรื่องย่อ Anon (2018) แหกกฏล่า ฆ่าล้ำอนาคต

“Anon อานอน แหกกฎล่า ฆ่าล้ำอนาคต” บอกเล่าเรื่องราวของ ซัล ฟรีแลนด์ (ไคลฟ์ โอเวน) ตำรวจผู้เผชิญกับคดีฆาตกรรมต่อเนื่องที่ดูเหมือนว่าทุกคดีมีส่วนเกี่ยวข้องกัน ซัลได้ออกตามหาตัวคนร้ายเหมือนดั่งที่นักสืบทั่วไปทำ แต่ในสถานที่ราวกับโลกอนาคตแห่งนั้น ซัลมีข้อได้เปรียบข้อหนึ่งที่สามารถช่วยในการไขคดีเห ล่านั้น นั่นคือระบบที่บันทึกกิจกรรมทุกอย่างของทุกๆ คนด้วยความถี่ระดับเสี้ยววินาที ข้อมูลเหล่านั้นจะถูกบันทึกลงบนฐานข้อมูลที่มีชื่อว่า The Ether ซึ่งเหล่าผู้รักษากฎหมายสามารถเข้าถึงฐานข้อมูลนี้ได้ มนุษย์ทุกคนจะต้องได้รับการฝัง คอมพิวเตอร์ชีวภาพ (biosyn computer) ที่จะบันทึกทุกกิจกรรมในชีวิตของพวกเขา คอมพิวเตอร์นี้ชื่อว่า The Mind’s Eye ซึ่งมันทำให้ทุกคนไม่มีความเป็นส่วนตัวอีกต่อไป เพียงแค่คุณเดินไปตามท้องถนน คุณก็สามารถเห็นข้อมูลของทุกคนที่ปรากฏต่อสายตาของคุณ คุณจะเห็นว่าพวกเขาใส่นาฬิกายี่ห้ออะไร พวกเขาซื้อรถที่ไหน ข้อมูลเหล่านั้นจะปรากฏในสายตาของคุณความเป็นส่วนตัว ทั้งหมดที่คุณรู้จักจะสูญหายไปจากโลกนี้ และมันก็คือจุดสิ้นสุดของการก่ออาชญากรรม ถึงแม้ว่าจะมีการก่อคดี ผู้ต้องหาก็จะถูกมัดด้วยหลักฐานอย่างง่ายดาย และการสอบสวนก็กลายเป็นแค่งานเอกสาร ตำรวจเป็นแค่สัญลักษณ์ การดำเนินกระบวนการทางกฎหมายอันยืดยาวเหลือเพียงแค่ขั้นตอนสั้น ๆ ดั่งดาวน์โหลดจากทางอินเทอร์เน็ต

แต่เมื่อ ซัล ได้ค้นลงไปในคดีเหล่านั้น พวกมันมีสิ่งหนึ่งที่คล้ายคลึงกัน สิ่งนั้นคือสัญญาณของการพังทลายของระบบที่สังคมให้ความเชื่อถือ มีใครบางคนค้นพบวิธีเจาะระบบ The Ether เพื่อไปดัดแปลงบันทึกข้างในเพื่อปกปิดการก่ออาชญากรรม ซัลและหัวหน้าของเขาชาลส์ แกททิส (คลอม ฟิโอเร) ต้องรับมือกับความกดดันที่พวกเขาไม่เคยเผชิญมาก่อน พวกเขาต้องหาผู้กระทำผิดและอุดรอยรั่วของระบบนี้ให้ได้

ในขณะที่เขาได้ทำการสืบสวนคดีนี้ เขาได้พบกับเรื่องที่ทำให้เขาประหลาดใจ ซึ่งในตอนแรกเขาคิดว่ามันเป็นเพียงสิ่งที่ไม่สำคัญ ในขณะที่เขากำลังเดินอยู่บนท้องถนน เขาได้พบกับหญิงสาวคนหนึ่ง (อะแมนดา ไซเฟร็ด) ที่ Mind’s Eye ของเขาไม่สามารถระบุตัวตนได้ แรกเริ่มเขาคิดว่ามันเป็นความผิดพลาดของระบบ แต่แล้วเขาก็ตระหนักได้ว่าหญิงสาวคนนั้นคือเบาะแสชิ้ นแรกของเขา และนั่นจึงเป็นจุดเริ่มต้นของภารกิจในการตามหาหญิงสา วคนนั้นที่ไม่ควรมีตัวตนอยู่จริง

Complete name : Anon.2018.1080p.WEB.AC3.THR5.1.×264.One2loadup.com.mkv
Format : Matroska
Format version : Version 4 / Version 2
File size : 3.63 GiB
Duration : 1 h 40 min
Overall bit rate mode : Variable
Overall bit rate : 5 192 kb/s
Movie name : Anon.2018.1080p.WEB.AC3.THR5.1.×264.One2loadup.com
Encoded date : UTC 2018-05-17 12:24:49
Writing application : mkvmerge v9.9.0 (‘Pick Up’) 64bit
Writing library : libebml v1.3.4 + libmatroska v1.4.5
Cover : Yes
Attachments : cover.jpg

Video
ID : 1
Format : AVC
Format/Info : Advanced Video Codec
Format profile : [email protected]
Format settings : CABAC / 3 Ref Frames
Format settings, CABAC : Yes
Format settings, ReFrames : 3 frames
Codec ID : V_MPEG4/ISO/AVC
Duration : 1 h 40 min
Bit rate mode : Variable
Bit rate : 4 640 kb/s
Maximum bit rate : 6 960 kb/s
Width : 1 920 pixels
Height : 1 080 pixels
Display aspect ratio : 16:9
Frame rate mode : Constant
Frame rate : 24.000 FPS
Color space : YUV
Chroma subsampling : 4:2:0
Bit depth : 8 bits
Scan type : Progressive
Bits/(Pixel*Frame) : 0.093
Stream size : 3.23 GiB (89%)
Title : Anon.2018.1080p.WEB.AC3.THR5.1.×264.One2loadup.com
Writing library : x264 core 148 r2715 7e75228
Encoding settings : cabac=1 / ref=3 / deblock=1:0:0 / analyse=0x1:0x111 / me=umh / subme=10 / psy=1 / psy_rd=1.00:0.00 / mixed_ref=1 / me_range=24 / chroma_me=1 / trellis=2 / 8x8dct=0 / cqm=0 / deadzone=21,11 / fast_pskip=1 / chroma_qp_offset=-2 / threads=8 / lookahead_threads=1 / sliced_threads=0 / nr=0 / decimate=1 / interlaced=0 / bluray_compat=0 / stitchable=1 / constrained_intra=0 / bframes=2 / b_pyramid=0 / b_adapt=2 / b_bias=0 / direct=3 / weightb=1 / open_gop=0 / weightp=2 / keyint=48 / keyint_min=25 / scenecut=0 / intra_refresh=0 / rc_lookahead=48 / rc=2pass / mbtree=1 / bitrate=4640 / ratetol=1.0 / qcomp=0.50 / qpmin=6 / qpmax=51 / qpstep=4 / cplxblur=20.0 / qblur=0.5 / vbv_maxrate=6960 / vbv_bufsize=9280 / nal_hrd=vbr / filler=0 / ip_ratio=1.40 / aq=1:1.00
Language : English
Default : Yes
Forced : No

Audio #1
ID : 2
Format : AC-3
Format/Info : Audio Coding 3
Codec ID : A_AC3
Duration : 1 h 40 min
Bit rate mode : Constant
Bit rate : 192 kb/s
Channel(s) : 2 channels
Channel positions : Front: L R
Sampling rate : 48.0 kHz
Frame rate : 31.250 FPS (1536 SPF)
Bit depth : 16 bits
Compression mode : Lossy
Stream size : 138 MiB (4%)
Title : THR 2.0
Language : Thai
Service kind : Complete Main
Default : Yes
Forced : Yes

Audio #2
ID : 3
Format : AC-3
Format/Info : Audio Coding 3
Codec ID : A_AC3
Duration : 1 h 40 min
Bit rate mode : Constant
Bit rate : 384 kb/s
Channel(s) : 6 channels
Channel positions : Front: L C R, Side: L R, LFE
Sampling rate : 48.0 kHz
Frame rate : 31.250 FPS (1536 SPF)
Bit depth : 16 bits
Compression mode : Lossy
Stream size : 275 MiB (7%)
Title : Englsih 5.1
Language : English
Service kind : Complete Main
Default : No
Forced : No

Text
ID : 4
Format : UTF-8
Codec ID : S_TEXT/UTF8
Codec ID/Info : UTF-8 Plain Text
Duration : 1 h 29 min
Bit rate : 38 b/s
Count of elements : 912
Stream size : 25.2 KiB (0%)
Title : English Srt
Language : English
Default : No
Forced : No

DOWNLOAD


PART01 |||| PART02 |||| PART03 |||| PART04

PART01 |||| PART02 |||| PART03 |||| PART04

PART01 |||| PART02 |||| PART03 |||| PART04

PART01 |||| PART02 |||| PART03 |||| PART04


Leave A Reply

Your email address will not be published.

%d bloggers like this: