โหลดหนัง HD MINI-HD SUPER-HQ Full-HD 1080p VIP Master Zoom ซูม หนังใหม่ ออนไลน์ มาสเตอร์ ไทย จีน ฝรั่ง การ์ตูน

[ไทย] The Legend of Muay Thai : 9 Satra (2018) 9 ศาสตรา [1080p] [พากย์ไทย 2.0] [ภาพมาสเตอร์] [ซับจีน(ฝัง)]

0

โหลดหนัง  The Legend of Muay Thai : 9 Satra (2018) 9 ศาสตรา

เรื่องย่อ The Legend of Muay Thai : 9 Satra (2018) 9 ศาสตรา

9 ศาสตรา เป็นภาพยนตร์การ์ตูนแอนิเมชั่นแนวแฟนตาซีผสมผสานกับมวยไทยอำนวยการสร้างโดยบริษัท เอ็กซ์ฟอร์แมท ซึ่งใช้เวลาในการสร้างถึง 4 ปีเต็ม

เรื่องราวเกิดขึ้นเมื่อ อ๊อด ชายหนุ่มแห่งหมู่บ้านนกนางเเอ่นที่อยู่โพ้นทะเลคือผู้ที่ถูกทำนายเอาไว้ในการเป็นผู้กอบกู้อาณาจักรรามเทพนคร ให้รอดพ้นจากเหล่ายักษาใจทมิฬ พร้อมพลพรรคเพื่อนพ้อง ไม่ว่าจะเป็น เสี่ยวหลาน โจรสลัดอากาศชาวจีน เธอเป็นสาวงามนักแม่นปืนจากกองเรือเหาะทะยานเมฆพร้อมด้วยเจ้าชายเเห่งเมืองวานร นามว่า วาตะ รวมถึง อสูรสีชาด ยักษ์สีแดงร่างใหญ่ใจดีที่หลงรักมนุษย์ ส่วนตัวอ๊อดเองนั้น ได้ร่ำเรียนศิลปะการต่อสู้มวยไทยที่เคยหายสาบสูญ อย่างหนักจากครูมวยอันดับหนึ่งของแผ่นดิน และทางเดียวที่จะชนะศึกครั้งนี้ได้ อ๊อดและพ้องเพื่อน ต้องเดินทางไปยัง รามเทพนคร เพื่อนำศาสตราวุธ ไปมอบให้กับราชโอรสของกษัตริย์แห่งรามเทพนคร ที่ถูกกับขังโดยเหล่ายักษาใจทมิฬ เเล้วพวกเขาจะทำภารกิจครั้งนี้ได้สำเร็จหรือไม่

Complete name : 9.Satra.The.Legend.of.Muaythai.2018.1080p.WEB-DL.One2loadup.com.mp4
Format : MPEG-4
Format profile : Base Media / Version 2
Codec ID : mp42 (isom/iso2/avc1/mp41)
File size : 2.37 GiB
Duration : 1 h 43 min
Overall bit rate mode : Variable
Overall bit rate : 3 268 kb/s
Encoded date : UTC 2018-09-08 03:53:36
Tagged date : UTC 2018-09-08 03:53:36
Writing application : HandBrake 1.1.1 2018061800

Video
ID : 1
Format : AVC
Format/Info : Advanced Video Codec
Format profile : [email protected]
Format settings : CABAC / 4 Ref Frames
Format settings, CABAC : Yes
Format settings, ReFrames : 4 frames
Codec ID : avc1
Codec ID/Info : Advanced Video Coding
Duration : 1 h 43 min
Bit rate : 3 102 kb/s
Width : 1 918 pixels
Height : 790 pixels
Display aspect ratio : 2.40:1
Frame rate mode : Constant
Frame rate : 24.000 FPS
Color space : YUV
Chroma subsampling : 4:2:0
Bit depth : 8 bits
Scan type : Progressive
Bits/(Pixel*Frame) : 0.085
Stream size : 2.25 GiB (95%)
Writing library : x264 core 155 r2901 7d0ff22
Encoding settings : cabac=1 / ref=2 / deblock=1:0:0 / analyse=0x1:0x111 / me=hex / subme=6 / psy=1 / psy_rd=1.00:0.00 / mixed_ref=1 / me_range=16 / chroma_me=1 / trellis=1 / 8x8dct=0 / cqm=0 / deadzone=21,11 / fast_pskip=1 / chroma_qp_offset=-2 / threads=6 / lookahead_threads=1 / sliced_threads=0 / nr=0 / decimate=1 / interlaced=0 / bluray_compat=0 / constrained_intra=0 / bframes=3 / b_pyramid=2 / b_adapt=1 / b_bias=0 / direct=1 / weightb=1 / open_gop=0 / weightp=1 / keyint=240 / keyint_min=24 / scenecut=40 / intra_refresh=0 / rc_lookahead=30 / rc=crf / mbtree=1 / crf=22.0 / qcomp=0.60 / qpmin=0 / qpmax=69 / qpstep=4 / vbv_maxrate=20000 / vbv_bufsize=25000 / crf_max=0.0 / nal_hrd=none / filler=0 / ip_ratio=1.40 / aq=1:1.00
Encoded date : UTC 2018-09-08 03:53:36
Tagged date : UTC 2018-09-08 03:53:36
Color range : Limited
Color primaries : BT.709
Transfer characteristics : BT.709
Matrix coefficients : BT.709

Audio
ID : 2
Format : AAC
Format/Info : Advanced Audio Codec
Format profile : LC
Codec ID : mp4a-40-2
Duration : 1 h 43 min
Bit rate mode : Variable
Bit rate : 160 kb/s
Channel(s) : 2 channels
Channel positions : Front: L R
Sampling rate : 48.0 kHz
Frame rate : 46.875 FPS (1024 SPF)
Compression mode : Lossy
Stream size : 119 MiB (5%)
Title : Stereo / Stereo
Language : Thai
Default : Yes
Alternate group : 1
Encoded date : UTC 2018-09-08 03:53:36
Tagged date : UTC 2018-09-08 03:53:36

DOWNLOAD


PART01 |||| PART02 |||| PART03

PART01 |||| PART02 |||| PART03

PART01 |||| PART02 |||| PART03

PART01 |||| PART02 |||| PART03


Leave A Reply

Your email address will not be published.

%d bloggers like this: