[ไทย] Nakee 2 (2018) นาคี 2 [1080p] [พากย์ไทย 2.0] [TRUEHD] [Modified] [เสียงไทย] [OPENLOAD]

0

Nakee 2 (2018) นาคี 2

โหลดหนัง Nakee 2 (2018) นาคี 2

(2018) 1h 33min | Fantasy, Romance | 18 October 2018 (Thailand) Summary: A new detective was sent to investigate unusual events in a rural village in the north-east of Thailand which was believed to be involved with the mythical giant snake called Nakee.
Countries: ThailandLanguages: Thai

เรื่องย่อ Nakee 2 (2018) นาคี 2

เรื่องราวของ “สร้อย” (อุรัสยา เสปอร์บันด์) สาวดอนไม้ป่า ผู้เติบโตมาพร้อมกับความเชื่อและศรัทธาต่อเจ้าแม่ นาคี 2 เธอช่วยยายขายดอกไม้ถวายเจ้าแม่ และคอยดูแลเทวาลัยแห่งนี้ สร้อยจึงมีความผูกพันกับเจ้าแม่นาคีเป็นอย่างมาก แต่หลังจากที่ “ร.ต.อ.ป้องปราบ” (ณเดชน์ คูกิมิยะ) ถูกย้ายมาประจำที่ สภ.ดอนไม้ป่าก็เกิดคดีสะเทือนขวัญขึ้นอย่างมากมาย โดยหลายคดีเกิดขึ้นอย่างไม่น่าเชื่อ และมีเงื่อนงำที่คลี่คลายไม่ได้ โดยชาวบ้านต่างปักใจว่าเป็นฝีมือของ เจ้าแม่นาคี ที่กำลังออกอาละวาดอีกครั้งและเหตุการณ์ยิ่งพาให้ชาวบ้านต่างแน่ใจว่า สร้อย เป็นร่างประทับของเจ้าแม่นาคี แม้แต่ตัว สารวัตรป้องปราบ เองซึ่งไม่เคยเชื่อในเรื่องราวลี้ลับเหนือธรรมชาติ ยังลังเลต่อคำกล่าวหาที่สร้อยได้รับ จนทำให้เขาต้องค้นหาความจริงเบื้องหลังคดีลึกลับในดอนไม้ป่าแห่งนี้

Complete name : Nakee.2.2018.1080p.HDTV.AAC.One2loadup.com.mp4
Format : MPEG-4
Format profile : Base Media / Version 2
Codec ID : mp42 (mp42)
File size : 1.61 GiB
Duration : 1 h 15 min
Overall bit rate : 3 059 kb/s
Codirector : codirector
Production studio : studio
ContentType : Unknown Type
Encoded date : UTC 2019-07-20 10:57:06
Tagged date : UTC 2019-07-20 10:57:06

Video
ID : 1
Format : AVC
Format/Info : Advanced Video Codec
Format profile : [email protected]
Format settings : CABAC / 2 Ref Frames
Format settings, CABAC : Yes
Format settings, ReFrames : 2 frames
Format settings, GOP : M=3, N=30
Muxing mode : Container [email protected]
Codec ID : avc1
Codec ID/Info : Advanced Video Coding
Duration : 1 h 15 min
Bit rate : 2 924 kb/s
Width : 1 920 pixels
Height : 800 pixels
Display aspect ratio : 2.40:1
Frame rate mode : Constant
Frame rate : 24.000 FPS
Color space : YUV
Chroma subsampling : 4:2:0
Bit depth : 8 bits
Scan type : Progressive
Bits/(Pixel*Frame) : 0.079
Stream size : 1.54 GiB (96%)
Language : English
Codec configuration box : avcC

Audio
ID : 2
Format : AAC LC
Format/Info : Advanced Audio Codec Low Complexity
Codec ID : mp4a-40-2
Duration : 1 h 15 min
Bit rate mode : Constant
Bit rate : 128 kb/s
Channel(s) : 2 channels
Channel layout : L R
Sampling rate : 48.0 kHz
Frame rate : 46.875 FPS (1024 SPF)
Compression mode : Lossy
Stream size : 68.9 MiB (4%)
Title : Stereo
Language : English
Default : Yes
Alternate group : 1

DOWNLOAD


PART01 |||| PART02

PART01 |||| PART02

PART01 |||| PART02

PART01 |||| PART02


Leave A Reply

Your email address will not be published.

%d bloggers like this: