โหลดหนัง HD MINI-HD SUPER-HQ Full-HD 1080p VIP Master Zoom ซูม หนังใหม่ ออนไลน์ มาสเตอร์ ไทย จีน ฝรั่ง การ์ตูน

[เกาหลี] The Villainess (Ak-Nyeo) (2017) สวย แค้น โหด (บุษบาล้างแค้น) [1080p] [พากย์ไทย 5.1 + เกาหลี DTS] [BDRip.x264.DTS] [บรรยายไทย + อังกฤษ] [Master] [เสียงไทยมาสเตอร์ + ซับไทย]

0

โหลดหนัง  The Villainess (Ak-Nyeo) (2017) สวย แค้น โหด (บุษบาล้างแค้น)

เรื่องย่อ The Villainess (Ak-Nyeo) (2017) สวย แค้น โหด (บุษบาล้างแค้น)

ซุกฮี หญิงสาวที่พ่อถูกฆ่าตายตั้งแต่เด็ก จึงถูกแก็งมาเฟียเลี้ยงดูและได้รับการฝึกฝนให้เป็นนักฆ่า ซึ่งเธอก็ตั้งใจจะตามล่าและล้างแค้นให้พ่อของเธอให้ได้ จนได้ทำภารกิจไล่ล่าบุกทลายแก๊งค้ายาด้วยการสังหารเรียบ แต่กลับถูกดึงตัวจากรัฐบาลให้มาเป็นสายลับเพื่อโค่นล ้มองค์กรมาเฟีย แลกกับอิสระภาพถ้าทำภารกิจแรกสำเร็จ ซึ่งระหว่างฝึกฝนอยู่กับหน่วยรัฐเธอได้ตั้งท้องโดยไม่รู้ตัวกับคนรักที่เป็นหัวหน้าแก็งมาเฟีย เธอจึงคิดอยากจะทำภาระกิจให้สำเร็จเพื่อที่จะได้ออกไปใช้ชีวิตแบบคนธรรมดาทั่วไป จนภาระกิจสำเร็จดั่งตั้งใจ เธอได้ออกไปอาศัยอยู่ในอพาร์ทเม้นท์แห่งหนึ่ง โดยที่หารู้ไม่ว่าถูกจับตามองผ่านกล้องตลอด 24 ชั่วโมง และมีหนุ่มหล่อข้างห้องที่ถูกส่งมาตามาติดเธอเมื่อเธอรู้ว่าถูกหักหลัง ทำลายความหวัง การล้างแค้นจึงเริ่มต้นขึ้น

Complete name : The.Villainess.(Ak-Nyeo).2017.1080p.BDRip.x264.DTS.One2loadup.com.mkv
Format : Matroska
Format version : Version 4
File size : 4.73 GiB
Duration : 2 h 3 min
Overall bit rate : 5 487 kb/s
Movie name : The.Villainess.(Ak-Nyeo).2017.1080p.BDRip.x264.DTS.One2loadup.com
Encoded date : UTC 2018-11-07 05:24:49
Writing application : mkvmerge v6.0.0 (‘Coming Up For Air’) built on Jan 20 2013 09:52:00
Writing library : libebml v1.3.0 + libmatroska v1.4.0
Cover : Yes
Attachments : cover.jpg

Video
ID : 1
Format : AVC
Format/Info : Advanced Video Codec
Format profile : [email protected]
Format settings : CABAC / 5 Ref Frames
Format settings, CABAC : Yes
Format settings, ReFrames : 5 frames
Codec ID : V_MPEG4/ISO/AVC
Duration : 2 h 3 min
Bit rate : 3 000 kb/s
Width : 1 920 pixels
Height : 804 pixels
Display aspect ratio : 2.40:1
Frame rate mode : Constant
Frame rate : 24.000 FPS
Color space : YUV
Chroma subsampling : 4:2:0
Bit depth : 8 bits
Scan type : Progressive
Bits/(Pixel*Frame) : 0.081
Stream size : 2.58 GiB (55%)
Writing library : x264 core 148 r2708 86b7198
Encoding settings : cabac=1 / ref=5 / deblock=1:0:0 / analyse=0x3:0x113 / me=umh / subme=9 / psy=1 / psy_rd=1.00:0.00 / mixed_ref=1 / me_range=16 / chroma_me=1 / trellis=2 / 8x8dct=1 / cqm=0 / deadzone=21,11 / fast_pskip=0 / chroma_qp_offset=-2 / threads=12 / lookahead_threads=1 / sliced_threads=0 / nr=0 / decimate=1 / interlaced=0 / bluray_compat=0 / constrained_intra=0 / bframes=3 / b_pyramid=2 / b_adapt=2 / b_bias=0 / direct=1 / weightb=1 / open_gop=0 / weightp=2 / keyint=240 / keyint_min=24 / scenecut=40 / intra_refresh=0 / rc_lookahead=40 / rc=2pass / mbtree=1 / bitrate=3000 / ratetol=1.0 / qcomp=0.60 / qpmin=0 / qpmax=69 / qpstep=4 / cplxblur=20.0 / qblur=0.5 / vbv_maxrate=62500 / vbv_bufsize=78125 / nal_hrd=none / filler=0 / ip_ratio=1.40 / aq=1:1.00
Language : Korean
Default : Yes
Forced : No
Color range : Limited
Color primaries : BT.709
Transfer characteristics : BT.709
Matrix coefficients : BT.709

Audio #1
ID : 2
Format : AC-3
Format/Info : Audio Coding 3
Commercial name : Dolby Digital
Codec ID : A_AC3
Duration : 2 h 3 min
Bit rate mode : Constant
Bit rate : 640 kb/s
Channel(s) : 6 channels
Channel layout : L R C LFE Ls Rs
Sampling rate : 48.0 kHz
Frame rate : 31.250 FPS (1536 SPF)
Bit depth : 16 bits
Compression mode : Lossy
Delay relative to video : -21 ms
Stream size : 565 MiB (12%)
Title : ThaiMaster2.0MixTo5.1
Language : Thai
Service kind : Complete Main
Default : Yes
Forced : Yes

Audio #2
ID : 3
Format : DTS
Format/Info : Digital Theater Systems
Codec ID : A_DTS
Duration : 2 h 3 min
Bit rate mode : Constant
Bit rate : 1 509 kb/s
Channel(s) : 6 channels
Channel layout : C L R Ls Rs LFE
Sampling rate : 48.0 kHz
Frame rate : 93.750 FPS (512 SPF)
Bit depth : 24 bits
Compression mode : Lossy
Delay relative to video : -15 ms
Stream size : 1.30 GiB (28%)
Title : Korean DTS 5.1
Language : Korean
Default : No
Forced : No

Audio #3
ID : 4
Format : AAC LC
Format/Info : Advanced Audio Codec Low Complexity
Codec ID : A_AAC-2
Duration : 2 h 3 min
Bit rate : 319 kb/s
Channel(s) : 6 channels
Channel layout : C L R Ls Rs LFE
Sampling rate : 48.0 kHz
Frame rate : 46.875 FPS (1024 SPF)
Compression mode : Lossy
Delay relative to video : -21 ms
Stream size : 282 MiB (6%)
Title : Korean Surround 5.1
Language : Korean
Default : No
Forced : No

Text #1
ID : 5
Format : PGS
Muxing mode : zlib
Codec ID : S_HDMV/PGS
Codec ID/Info : Picture based subtitle format used on BDs/HD-DVDs
Duration : 1 h 58 min
Bit rate : 19.2 kb/s
Count of elements : 1700
Stream size : 16.3 MiB (0%)
Title : Thai PGS
Language : Thai
Default : Yes
Forced : Yes

Text #2
ID : 6
Format : PGS
Muxing mode : zlib
Codec ID : S_HDMV/PGS
Codec ID/Info : Picture based subtitle format used on BDs/HD-DVDs
Duration : 2 h 3 min
Bit rate : 16.3 kb/s
Count of elements : 1738
Stream size : 14.4 MiB (0%)
Title : English PGS
Language : English
Default : No
Forced : No

Text #3
ID : 7
Format : VobSub
Muxing mode : zlib
Codec ID : S_VOBSUB
Codec ID/Info : Picture based subtitle format used on DVDs
Duration : 1 h 58 min
Bit rate : 4 283 b/s
Count of elements : 850
Stream size : 3.62 MiB (0%)
Title : Thai Vobsub
Language : Thai
Default : No
Forced : No

DOWNLOAD


PART01 |||| PART02 |||| PART03 |||| PART04 |||| PART05

PART01 |||| PART02 |||| PART03 |||| PART04 |||| PART05

PART01 |||| PART02 |||| PART03 |||| PART04 |||| PART05

PART01 |||| PART02 |||| PART03 |||| PART04 |||| PART05


Leave A Reply

Your email address will not be published.

%d bloggers like this: