โหลดหนัง HD MINI-HD SUPER-HQ Full-HD 1080p VIP Master Zoom ซูม หนังใหม่ ออนไลน์ มาสเตอร์ ไทย จีน ฝรั่ง การ์ตูน

[เกาหลี] Monstrum (2018) พันธุ์อสูรกลาย [1080p] [พากย์ไทยโรง + เสียงเกาหลี 2.0] [Modified] [ไม่มีบรรยาย] [เสียงไทยโรง]

0

โหลดหนัง  Monstrum (2018) พันธุ์อสูรกลาย

เรื่องย่อ Monstrum (2018) พันธุ์อสูรกลาย

อสูรร้ายในตำนานได้ทำให้ผู้คนบนเขาอินวังซานต้องหว าดผวาในช่วงแห่งราชวงศ์โชซอน โรคระบาดได้แพร่กระจายเข้าสู่ผู้คน เกิดภาวะแร้นแค้นทั่วทั้งเมือง ผู้คนต้องตื่นกระหนกเมื่อมีข่าวลือถึงอสูรร้ายแห่งบร รพกาลออกมาไล่ฆ่ามนุษย์บนภูเขาอินวังซานชาวเมืองเริ่ มต่อต้านองค์จักรพรรดิ เพราะคิดว่าพระองค์จะไม่สามารถปกป้องพวกตนได้ พระองค์จึงมอบหมายให้ ยุน กยอม อดีตองครักษ์ประจำราชวงศ์ ออกไปสืบหาความจริงและล่าอสูรร้ายตัวนั้นก่อนที่การต ่อต้านจะรุนแรงเกินควบคุม แต่หารู้ไม่ว่าอสูรร้ายตัวนั้นอาจเป็นภัยอันตรายที่ส ามารถทำลายเมืองให้ย่อยยับ !!!

Complete name : Monstrum.2018.1080p.FHDRip.x264.AAC.One2loadup.com.mkv
Format : Matroska
Format version : Version 4
File size : 4.09 GiB
Duration : 1 h 45 min
Overall bit rate : 5 567 kb/s
Encoded date : UTC 2018-11-01 06:43:21
Writing application : mkvmerge v28.2.0 (‘The Awakening’) 64-bit
Writing library : libebml v1.3.6 + libmatroska v1.4.9

Video
ID : 1
Format : AVC
Format/Info : Advanced Video Codec
Format profile : [email protected]
Format settings : CABAC / 4 Ref Frames
Format settings, CABAC : Yes
Format settings, ReFrames : 4 frames
Codec ID : V_MPEG4/ISO/AVC
Duration : 1 h 45 min
Bit rate : 5 120 kb/s
Width : 1 920 pixels
Height : 1 080 pixels
Display aspect ratio : 16:9
Frame rate mode : Constant
Frame rate : 24.000 FPS
Color space : YUV
Chroma subsampling : 4:2:0
Bit depth : 8 bits
Scan type : Progressive
Bits/(Pixel*Frame) : 0.103
Stream size : 3.76 GiB (92%)
Writing library : x264 core 148 r2768 d32d7bf
Encoding settings : cabac=1 / ref=3 / deblock=1:0:0 / analyse=0x3:0x113 / me=hex / subme=8 / psy=1 / psy_rd=1.00:0.00 / mixed_ref=1 / me_range=16 / chroma_me=1 / trellis=2 / 8x8dct=1 / cqm=0 / deadzone=21,11 / fast_pskip=1 / chroma_qp_offset=-2 / threads=24 / lookahead_threads=4 / sliced_threads=0 / nr=0 / decimate=1 / interlaced=0 / bluray_compat=0 / stitchable=1 / constrained_intra=0 / bframes=3 / b_pyramid=2 / b_adapt=1 / b_bias=0 / direct=3 / weightb=1 / open_gop=0 / weightp=2 / keyint=23 / keyint_min=12 / scenecut=40 / intra_refresh=0 / rc_lookahead=23 / rc=2pass / mbtree=1 / bitrate=5120 / ratetol=1.0 / qcomp=0.60 / qpmin=0 / qpmax=69 / qpstep=4 / cplxblur=20.0 / qblur=0.5 / ip_ratio=1.40 / aq=1:1.00
Default : Yes
Forced : No

Audio #1
ID : 2
Format : AAC LC
Format/Info : Advanced Audio Codec Low Complexity
Codec ID : A_AAC-2
Duration : 1 h 45 min
Bit rate : 128 kb/s
Channel(s) : 2 channels
Channel layout : L R
Sampling rate : 44.1 kHz
Frame rate : 43.066 FPS (1024 SPF)
Compression mode : Lossy
Delay relative to video : 8 s 0 ms
Stream size : 96.1 MiB (2%)
Title : Thairong 2CH
Language : Thai
Default : Yes
Forced : Yes

Audio #2
ID : 3
Format : AAC LC
Format/Info : Advanced Audio Codec Low Complexity
Codec ID : A_AAC-2
Duration : 1 h 45 min
Bit rate : 320 kb/s
Channel(s) : 2 channels
Channel layout : L R
Sampling rate : 48.0 kHz
Frame rate : 46.875 FPS (1024 SPF)
Compression mode : Lossy
Stream size : 241 MiB (6%)
Title : Korean 2CH
Language : Korean
Default : No
Forced : No

 

DOWNLOAD


PART01 |||| PART02 |||| PART03 |||| PART04 |||| PART05

PART01 |||| PART02 |||| PART03 |||| PART04 |||| PART05

PART01 |||| PART02 |||| PART03 |||| PART04 |||| PART05

PART01 |||| PART02 |||| PART03 |||| PART04 |||| PART05


Leave A Reply

Your email address will not be published.

%d bloggers like this: