เว็บโหลดหนัง HD MINI-HD SUPER-HQ Full-HD 1080p One2up VIP Master Zoom ซูม หนังใหม่ ออนไลน์ มาสเตอร์ ไทย จีน ฝรั่ง การ์ตูน

[MINI-HD] [หนังลาว] Swan Lifts Turtle (2017) หงส์หามเต่า (ข้อยตั๊วะเจ้า เฮาฮักกัน) [720p] [พากย์ลาว 5.1] [บรรยายไทย] [เสียงลาว + ซับไทย] [ONE2UP]

0

โหลดหนัง  Swan Lifts Turtle (2017) หงส์หามเต่า (ข้อยตั๊วะเจ้า เฮาฮักกัน) 

เรื่องย่อ Swan Lifts Turtle (2017) หงส์หามเต่า (ข้อยตั๊วะเจ้า เฮาฮักกัน)

หงส์หามเต่า เต่า (บ็อบบี้ อัศวิน) หนุ่มนักโฆษณาต้องมาแข่งขันกันถ่ายสารคดีของหงส์ (ลูกน้ำ มิสลาวปี 2011) สาวสวยผู้มีจิตใจดีที่ชอบช่วยเหลือคนพิการ โดยมีโรเบิร์ท (เจี้ย แปซิฟิก) เป็นคนวางแผนช่วยกันพิชิตเงินกว่าสามร้อยล้านบาท แต่ทุกอย่างไม่ได้มาโดยง่าย เมื่อทีมเทพ คู่แข่งตัวฉกาจที่มีความได้เปรียบหลายด้าน จากที่อยากได้ตำแหน่งงานและเงิน เต่าดันมาตกหลุมรักหงส์เสียเอง ทำไงดีระหว่างเรื่องความรัก งาน เงิน และเพื่อนที่ต้องทดแทนบุญคุณ… หาคำตอบแบบ ฮา หวาน ซึ้ง!!!

Complete name : [MINI-HD]_Swan.lifts.turtle.2017.720p.DVDRip.One2loadup.com.mkv
Format : Matroska
Format version : Version 2
File size : 1.98 GiB
Duration : 1 h 45 min
Overall bit rate : 2 680 kb/s
Writing application : HandBrake 0.9.9
Writing library : libmkv 0.6.5

Video
ID : 1
Format : AVC
Format/Info : Advanced Video Codec
Format profile : [email protected]
Format settings, CABAC : Yes
Format settings, RefFrames : 4 frames
Codec ID : V_MPEG4/ISO/AVC
Duration : 1 h 45 min
Bit rate : 2 222 kb/s
Width : 720 pixels
Height : 308 pixels
Display aspect ratio : 2.35:1
Frame rate mode : Constant
Frame rate : 25.000 FPS
Color space : YUV
Chroma subsampling : 4:2:0
Bit depth : 8 bits
Scan type : Progressive
Bits/(Pixel*Frame) : 0.401
Stream size : 1.61 GiB (81%)
Writing library : x264 core 130 r2273 b3065e6
Encoding settings : cabac=1 / ref=3 / deblock=1:0:0 / analyse=0x3:0x113 / me=umh / subme=10 / psy=1 / psy_rd=1.00:0.00 / mixed_ref=1 / me_range=16 / chroma_me=1 / trellis=2 / 8x8dct=1 / cqm=0 / deadzone=21,11 / fast_pskip=1 / chroma_qp_offset=-2 / threads=10 / lookahead_threads=1 / sliced_threads=0 / nr=0 / decimate=1 / interlaced=0 / bluray_compat=0 / constrained_intra=0 / bframes=3 / b_pyramid=2 / b_adapt=1 / b_bias=0 / direct=1 / weightb=1 / open_gop=0 / weightp=2 / keyint=250 / keyint_min=25 / scenecut=40 / intra_refresh=0 / rc_lookahead=40 / rc=2pass / mbtree=1 / bitrate=2222 / ratetol=1.0 / qcomp=0.60 / qpmin=0 / qpmax=69 / qpstep=4 / cplxblur=20.0 / qblur=0.5 / ip_ratio=1.40 / aq=1:1.00
Language : English
Default : Yes
Forced : No
Color range : Limited
Color primaries : BT.601 PAL
Transfer characteristics : BT.709
Matrix coefficients : BT.601

Audio
ID : 2
Format : AC-3
Format/Info : Audio Coding 3
Format settings, Endianness : Big
Codec ID : A_AC3
Duration : 1 h 45 min
Bit rate mode : Constant
Bit rate : 448 kb/s
Channel(s) : 6 channels
Channel positions : Front: L C R, Side: L R, LFE
Sampling rate : 48.0 kHz
Frame rate : 31.250 FPS (1536 SPF)
Bit depth : 16 bits
Compression mode : Lossy
Stream size : 339 MiB (17%)
Language : Lao
Service kind : Complete Main
Default : Yes
Forced : No

Text
ID : 3
Format : VobSub
Codec ID : S_VOBSUB
Codec ID/Info : Picture based subtitle format used on DVDs
Language : Thai
Default : No
Forced : No

Menu
00:00:00.000 : Chapter 1
00:06:43.920 : Chapter 2
00:17:21.640 : Chapter 3
00:26:46.080 : Chapter 4
00:37:06.160 : Chapter 5
00:47:06.600 : Chapter 6
00:52:12.040 : Chapter 7
01:00:01.080 : Chapter 8
01:08:22.240 : Chapter 9
01:18:51.440 : Chapter 10
01:27:11.880 : Chapter 11
01:36:02.480 : Chapter 12


PART01 |||| PART02

PART01 |||| PART02 

PART01 |||| PART02 

PART01 |||| PART02


Leave A Reply

Your email address will not be published.

%d bloggers like this: