เว็บโหลดหนัง HD MINI-HD SUPER-HQ Full-HD 1080p One2up VIP Master Zoom ซูม หนังใหม่ ออนไลน์ มาสเตอร์ ไทย จีน ฝรั่ง การ์ตูน

[ฝรั่ง] Tomb Raider (2018) ทูม เรเดอร์ [1080p] [พากย์ไทยโรง 5.1 + เสียงอังกฤษ 5.1] [บรรยายอังกฤษ] [เสียงไทยโรง + ซับอังกฤษ] [ONE2UP]

0

Tomb Raider (2018) ทูม เรเดอร์

โหลดหนัง Tomb Raider (2018) ทูม เรเดอร์ 

เรื่องย่อ Tomb Raider (2018) ทูม เรเดอร์

Tomb Raider ลาร่า ครอฟท์ คือลูกสาวผู้รักในอิสระอย่างแรงกล้าของนักแสวงโชคผู้ สาปสูญไปในตอนที่เธอยังเป็นเพียงวัยรุ่น และตอนนี้หญิงสาววัย 21 ผู้ไร้ซึ่งเป้าหมายหรือความฝันในชีวิตลาร่า ได้สังเกตเห็นความวุ่นวายที่ถนนสายหนึ่งในย่านแฟชั่น ของลอนดอนตะวันออก

ในฐานะเด็กส่งของผู้มีชีวิตอย่างยากลำบาก ไม่ว่าจะเป็นการกู้สินเชื่อ การเข้าเรียนมหาวิทยาลัย และเข้าเรียนให้ทันเวลาได้น้อยครั้ง เธอตัดสินใจจะสร้างเส้นทางชีวิตของตนเอง หญิงสาวปฏิเสธการเข้ารับตำแหน่งประจำสหราชอาณาจักรต่ อจากพ่อเธอ เพียงเพื่อเป็นการยืนกรานในความคิดของตนเองว่าพ่อของ เธอยังไม่จากไปไหน แม้ว่าจะได้รับคำแนะนำให้ยอมรับความเป็นจริง ที่ว่าเธอต้องยืนหยัดด้วยขาของตนเองมาตลอดเจ็ดปีโดยไ ม่มีพ่อก็ตาม และแม้แต่เจ้าตัวก็ยังไม่เข้าใจ ว่าอะไรทำให้เธอตัดสินใจที่จะไขปริศนาการตายของพ่อได ้

เพื่อรับรู้ความปรารถนาสุดท้ายของพ่อ เธอตัดสินใจละทิ้งทุกสิ่งที่เธอมีไว้ด้านหลัง และเริ่มค้นหาเป้าจุดมุ่งหมายสุดท้ายของพ่อเธอ: สุสานในนิทาน ที่อยู่บนเกาะลึกลับที่ไหนสักแห่งแถวชายฝั่งประเทศญี่ปุ่น แต่ภารกิจของเธอไม่ง่ายถึงเพียงนั้น แค่การไปถึงเกาะก็เต็มไปด้วยการทรยศหลอกลวง และทันใดนั้น เธอก็เสี่ยงจนถึงขีดสุด เมื่อต้องรับมือกับภยันตรายและอาวุธต่างๆอย่างยากลำบาก ด้วยเพียงจิตใจอันแข็งแกร่ง โชคชะตาอันมืดบอด และจิตวิญญาณอันไม่ยอมแพ้เท่านั้น เธอต้องเรียนรู้ที่จะผลักดันตัวเองไปให้มากกว่าขีดจำกัด เมื่อการเดินทางในครั้งนี้ นำพาไปสู่การผจญภัยอันเหลือเชื่อ ที่นำพาชื่อ ทูมเรเดอร์ มาให้เธอนั่นเอง

Complete name : Tomb.Raider.2018.1080p.BluRay.H265.AC-3.THR5.1.x264.One2loadup.com.mkv
Format : Matroska
Format version : Version 4 / Version 2
File size : 5.23 GiB
Duration : 1 h 57 min
Overall bit rate : 6 351 kb/s
Movie name : Tomb.Raider.2018.1080p.BluRay.H265.AC-3.THR5.1.x264.One2loadup.com
Encoded date : UTC 2018-06-02 15:01:09
Writing application : mkvmerge v9.9.0 (‘Pick Up’) 64bit
Writing library : libebml v1.3.4 + libmatroska v1.4.5
Cover : Yes
Attachments : cover.jpg

Video
ID : 1
Format : HEVC
Format/Info : High Efficiency Video Coding
Format profile : Main [email protected]@Main
Codec ID : V_MPEGH/ISO/HEVC
Duration : 1 h 57 min
Bit rate : 5 453 kb/s
Width : 1 920 pixels
Height : 800 pixels
Display aspect ratio : 2.40:1
Frame rate mode : Constant
Frame rate : 23.976 (24000/1001) FPS
Color space : YUV
Chroma subsampling : 4:2:0
Bit depth : 10 bits
Bits/(Pixel*Frame) : 0.148
Stream size : 4.49 GiB (86%)
Title : Tomb.Raider.2018.1080p.BluRay.H265.AC-3.THR5.1.x264.One2loadup.com
Language : English
Default : Yes
Forced : No

Audio #1
ID : 2
Format : AC-3
Format/Info : Audio Coding 3
Codec ID : A_AC3
Duration : 1 h 57 min
Bit rate mode : Constant
Bit rate : 448 kb/s
Channel(s) : 6 channels
Channel positions : Front: L C R, Side: L R, LFE
Sampling rate : 48.0 kHz
Frame rate : 31.250 FPS (1536 SPF)
Bit depth : 16 bits
Compression mode : Lossy
Stream size : 378 MiB (7%)
Title : THR 5.1
Language : Thai
Service kind : Complete Main
Default : Yes
Forced : Yes

Audio #2
ID : 3
Format : AC-3
Format/Info : Audio Coding 3
Codec ID : A_AC3
Duration : 1 h 57 min
Bit rate mode : Constant
Bit rate : 448 kb/s
Channel(s) : 6 channels
Channel positions : Front: L C R, Side: L R, LFE
Sampling rate : 48.0 kHz
Frame rate : 31.250 FPS (1536 SPF)
Bit depth : 16 bits
Compression mode : Lossy
Stream size : 378 MiB (7%)
Title : English 5.1
Language : English
Service kind : Complete Main
Default : No
Forced : No

Text
ID : 4
Format : UTF-8
Codec ID : S_TEXT/UTF8
Codec ID/Info : UTF-8 Plain Text
Duration : 1 h 56 min
Bit rate : 34 b/s
Count of elements : 1122
Stream size : 29.1 KiB (0%)
Title : English SRT
Language : English
Default : Yes
Forced : No

DOWNLOAD


PART01 |||| PART02 |||| PART03 |||| PART04 |||| PART05 |||| PART06

PART01 |||| PART02 |||| PART03 |||| PART04 |||| PART05 |||| PART06

PART01 |||| PART02 |||| PART03 |||| PART04 |||| PART05 |||| PART06

PART01 |||| PART02 |||| PART03 |||| PART04 |||| PART05 |||| PART06


Leave A Reply

Your email address will not be published.

%d bloggers like this: