[ฝรั่ง] The Possession of Hannah Grace (2018) [1080p] [พากย์อังกฤษ DTS] [บรรยายไทย + อังกฤษ] [เสียงอังกฤษ + ซับไทย] [OPENLOAD]

0

โหลดหนัง  The Possession of Hannah Grace (2018)

The Possession of Hannah Grace (2018) 1h 26min | Horror, Mystery, Thriller | 29 November 2018 (Netherlands) Summary: When a cop who is just out of rehab takes the graveyard shift in a city hospital morgue, she faces a series of bizarre, violent events caused by an evil entity in one of the corpses.
Countries: USALanguages: English

เรื่องย่อ The Possession of Hannah Grace (2018)

เมื่อตำรวจสาวที่เพิ่งออกจากสถานบำบัดยาเสพติดได้มาอ ยู่เวรกะดึกเฝ้าห้องดับจิตในโรงพยาบาลของตัวเมืองสิ่งที่เธอได้เจอคือการเผชิญหน้ากับเหตุการณ์ที่แปลกประหลาดที่เกิดขึ้นจากศพ!!!

Complete name : The.Possession.of.Hannah.Grace.2018.1080p.BrRip.DTS.Subthai.x264.One2loadup.com.mkv
Format : Matroska
Format version : Version 4
File size : 3.73 GiB
Duration : 1 h 25 min
Overall bit rate : 6 233 kb/s
Movie name : The.Possession.of.Hannah.Grace.2018.1080p.BrRip.DTS.Subthai.x264.One2loadup.com
Encoded date : UTC 2010-02-22 21:41:31
Writing application : mkvmerge v5.9.0 (‘On The Loose’) built on Dec 9 2012 15:37:01
Writing library : libebml v1.3.0 + libmatroska v1.4.0

Video
ID : 1
Format : AVC
Format/Info : Advanced Video Codec
Format profile : [email protected]
Format settings : CABAC / 5 Ref Frames
Format settings, CABAC : Yes
Format settings, ReFrames : 5 frames
Codec ID : V_MPEG4/ISO/AVC
Duration : 1 h 25 min
Bit rate : 5 354 kb/s
Width : 1 920 pixels
Height : 804 pixels
Display aspect ratio : 2.40:1
Frame rate mode : Constant
Frame rate : 23.976 (24000/1001) FPS
Color space : YUV
Chroma subsampling : 4:2:0
Bit depth : 8 bits
Scan type : Progressive
Bits/(Pixel*Frame) : 0.145
Stream size : 3.21 GiB (86%)
Title : The.Possession.of.Hannah.Grace.2018.1080p.BrRip.DTS.Subthai.x264.One2loadup.com
Writing library : x264 core 157 r2938 2b00a84 [email protected] Mod
Encoding settings : cabac=1 / ref=5 / deblock=1:-3:-3 / analyse=0x3:0x133 / me=umh / subme=10 / psy=1 / psy_rd=1.05:0.00 / mixed_ref=1 / me_range=32 / chroma_me=1 / trellis=2 / 8x8dct=1 / cqm=0 / deadzone=21,11 / fast_pskip=0 / chroma_qp_offset=-2 / threads=12 / lookahead_threads=2 / sliced_threads=0 / nr=0 / decimate=0 / interlaced=0 / bluray_compat=0 / constrained_intra=0 / bframes=8 / b_pyramid=2 / b_adapt=2 / b_bias=0 / direct=3 / weightb=1 / open_gop=0 / weightp=2 / keyint=250 / keyint_min=24 / scenecut=40 / intra_refresh=0 / rc_lookahead=250 / rc=crf / mbtree=0 / crf=17.5 / qcomp=0.60 / qpmin=0 / qpmax=69 / qpstep=4 / vbv_maxrate=62500 / vbv_bufsize=78125 / crf_max=0.0 / nal_hrd=none / filler=0 / ip_ratio=1.30 / pb_ratio=1.20 / aq=3:0.80
Language : English
Default : Yes
Forced : No
Color range : Limited
Color primaries : BT.709
Matrix coefficients : BT.709

Audio
ID : 2
Format : DTS
Format/Info : Digital Theater Systems
Codec ID : A_DTS
Duration : 1 h 25 min
Bit rate mode : Constant
Bit rate : 755 kb/s
Channel(s) : 6 channels
Channel layout : C L R Ls Rs LFE
Sampling rate : 48.0 kHz
Frame rate : 93.750 FPS (512 SPF)
Bit depth : 24 bits
Compression mode : Lossy
Stream size : 463 MiB (12%)
Title : English DTS
Language : English
Default : Yes
Forced : No

Text #1
ID : 3
Format : VobSub
Codec ID : S_VOBSUB
Codec ID/Info : Picture based subtitle format used on DVDs
Language : Thai
Default : Yes
Forced : Yes

Text #2
ID : 4
Format : VobSub
Codec ID : S_VOBSUB
Codec ID/Info : Picture based subtitle format used on DVDs
Title : Thai 480p
Language : Thai
Default : No
Forced : No

Text #3
ID : 5
Format : VobSub
Codec ID : S_VOBSUB
Codec ID/Info : Picture based subtitle format used on DVDs
Title : Thai 720p
Language : Thai
Default : No
Forced : No

Text #4
ID : 6
Format : VobSub
Codec ID : S_VOBSUB
Codec ID/Info : Picture based subtitle format used on DVDs
Title : Thai 1080p
Language : Thai
Default : No
Forced : No

Text #5
ID : 7
Format : VobSub
Codec ID : S_VOBSUB
Codec ID/Info : Picture based subtitle format used on DVDs
Title : Thai 1080p Yellow
Language : Thai
Default : No
Forced : No

Text #6
ID : 8
Format : VobSub
Codec ID : S_VOBSUB
Codec ID/Info : Picture based subtitle format used on DVDs
Title : Thai 1080p Out
Language : Thai
Default : No
Forced : No

Text #7
ID : 9
Format : VobSub
Codec ID : S_VOBSUB
Codec ID/Info : Picture based subtitle format used on DVDs
Title : Thai 1080p BIG
Language : Thai
Default : No
Forced : No

Text #8
ID : 10
Format : PGS
Codec ID : S_HDMV/PGS
Codec ID/Info : Picture based subtitle format used on BDs/HD-DVDs
Title : Thai PGS BluRay Master
Language : Thai
Default : No
Forced : No

Text #9
ID : 11
Format : PGS
Codec ID : S_HDMV/PGS
Codec ID/Info : Picture based subtitle format used on BDs/HD-DVDs
Title : Thai PGS Out
Language : Thai
Default : No
Forced : No

Text #10
ID : 12
Format : PGS
Codec ID : S_HDMV/PGS
Codec ID/Info : Picture based subtitle format used on BDs/HD-DVDs
Title : English
Language : English
Default : No
Forced : No

Menu
00:00:00.000 : en:Chapter 01
00:05:30.956 : en:Chapter 02
00:10:07.232 : en:Chapter 03
00:15:24.549 : en:Chapter 04
00:21:30.289 : en:Chapter 05
00:26:07.649 : en:Chapter 06
00:31:27.719 : en:Chapter 07
00:36:12.212 : en:Chapter 08
00:41:45.002 : en:Chapter 09
00:47:07.116 : en:Chapter 10
00:51:57.823 : en:Chapter 11
00:56:37.603 : en:Chapter 12
01:03:44.320 : en:Chapter 13
01:08:01.786 : en:Chapter 14
01:13:25.818 : en:Chapter 15
01:20:45.674 : en:Chapter 16

DOWNLOAD


PART01 |||| PART02 |||| PART03 |||| PART04

PART01 |||| PART02 |||| PART03 |||| PART04

PART01 |||| PART02 |||| PART03 |||| PART04

PART01 |||| PART02 |||| PART03 |||| PART04


Leave A Reply

Your email address will not be published.

%d bloggers like this: