โหลดหนัง HD MINI-HD SUPER-HQ Full-HD 1080p VIP Master Zoom ซูม หนังใหม่ ออนไลน์ มาสเตอร์ ไทย จีน ฝรั่ง การ์ตูน

[ฝรั่ง] The Nun (2018) เดอะ นัน [1080p] [พากย์ไทยโรง + เสียงอังกฤษ 2.0] [ไม่มีบรรยาย] [เสียงไทยโรง]

0

โหลดหนัง The Nun (2018) เดอะ นัน

เรื่องย่อ The Nun (2018) เดอะ นัน

เป็นเรื่องราวของแม่ชีคนหนึ่งในศาสนจักรแห่งโรมาเนีย , นักบวช (รับบทโดย Demian Bichir) ผู้รับรู้อดีตสุดสยองขวัญและคำสัตย์สาบานสุดท้ายของเ ธอ (รับบทโดย Taissa Farmiga) เขาได้ถูกส่งไปยังวาติกัน เพื่อสืบหาสาเหตุทั้งหมด ที่นั่นพวกเขาได้ค้นพบกับคำสั่งอันดำมืด ที่เกี่ยวพันกันไม่ใช่แค่โชคชะตาของพวกเขา แต่เป็นโชคชะตาของวิญญาณทุกดวง ที่ต้องเผชิญหน้ากับแรงอาฆาตสุดร้ายแรง จากปีศาจแม่ชีที่เราได้พบกันครั้งแรกใน The Conjuring 2 และนี่จะเป็นเรื่องราวที่เกิดขึ้นท่ามกลางสมรภูมิระห ว่างชีวิตและคำสาปแช่ง

Complete name : The.Nun.2018.1080p.THR.One2loadup.com.mkv
Format : Matroska
Format version : Version 4
File size : 3.23 GiB
Duration : 1 h 36 min
Overall bit rate : 4 801 kb/s
Movie name : The.Nun.2018.1080p.THR.One2loadup.com
Encoded date : UTC 2018-11-04 01:46:39
Writing application : mkvmerge v17.0.0 (‘Be Ur Friend’) 64-bit
Writing library : libebml v1.3.5 + libmatroska v1.4.8
Cover : Yes
Attachments : small_cover.jpg / small_cover_land.jpg / cover.jpg / cover_land.jpg

Video
ID : 1
Format : AVC
Format/Info : Advanced Video Codec
Format profile : [email protected]
Format settings : CABAC / 4 Ref Frames
Format settings, CABAC : Yes
Format settings, ReFrames : 4 frames
Codec ID : V_MPEG4/ISO/AVC
Duration : 1 h 36 min
Bit rate : 4 140 kb/s
Width : 1 920 pixels
Height : 800 pixels
Display aspect ratio : 2.40:1
Frame rate mode : Constant
Frame rate : 30.000 FPS
Color space : YUV
Chroma subsampling : 4:2:0
Bit depth : 8 bits
Scan type : Progressive
Bits/(Pixel*Frame) : 0.090
Stream size : 2.75 GiB (85%)
Title : The.Nun.2018.1080p.THR.One2loadup.com
Writing library : x264 core 142 r2479 dd79a61
Encoding settings : cabac=1 / ref=1 / deblock=1:0:0 / analyse=0x3:0x113 / me=hex / subme=2 / psy=1 / psy_rd=1.00:0.00 / mixed_ref=0 / me_range=16 / chroma_me=1 / trellis=0 / 8x8dct=1 / cqm=0 / deadzone=21,11 / fast_pskip=1 / chroma_qp_offset=0 / threads=18 / lookahead_threads=6 / sliced_threads=0 / nr=0 / decimate=1 / interlaced=0 / bluray_compat=0 / constrained_intra=0 / bframes=3 / b_pyramid=2 / b_adapt=1 / b_bias=0 / direct=1 / weightb=1 / open_gop=0 / weightp=1 / keyint=300 / keyint_min=30 / scenecut=40 / intra_refresh=0 / rc_lookahead=10 / rc=abr / mbtree=1 / bitrate=4140 / ratetol=1.0 / qcomp=0.60 / qpmin=0 / qpmax=69 / qpstep=4 / vbv_maxrate=62500 / vbv_bufsize=78125 / nal_hrd=none / filler=0 / ip_ratio=1.40 / aq=1:1.00
Language : English
Default : Yes
Forced : No
Color range : Limited
Color primaries : BT.709
Transfer characteristics : BT.709
Matrix coefficients : BT.709

Audio #1
ID : 2
Format : AAC LC
Format/Info : Advanced Audio Codec Low Complexity
Codec ID : A_AAC-2
Duration : 1 h 36 min
Bit rate : 256 kb/s
Channel(s) : 2 channels
Channel layout : L R
Sampling rate : 48.0 kHz
Frame rate : 46.875 FPS (1024 SPF)
Compression mode : Lossy
Delay relative to video : -102 ms
Stream size : 176 MiB (5%)
Title : ENG AC-3 2.0
Language : English
Default : No
Forced : No

Audio #2
ID : 3
Format : AC-3
Format/Info : Audio Coding 3
Commercial name : Dolby Digital
Codec ID : A_AC3
Duration : 1 h 36 min
Bit rate mode : Constant
Bit rate : 448 kb/s
Channel(s) : 2 channels
Channel layout : L R
Sampling rate : 48.0 kHz
Frame rate : 31.250 FPS (1536 SPF)
Bit depth : 16 bits
Compression mode : Lossy
Delay relative to video : -102 ms
Stream size : 309 MiB (9%)
Title : THAI AC-3 2.0
Language : Thai
Service kind : Complete Main
Default : Yes
Forced : No

DOWNLOAD


PART01 |||| PART02 |||| PART03 |||| PART04

PART01 |||| PART02 |||| PART03 |||| PART04

PART01 |||| PART02 |||| PART03 |||| PART04

PART01 |||| PART02 |||| PART03 |||| PART04


Leave A Reply

Your email address will not be published.

%d bloggers like this: