เว็บโหลดหนัง HD MINI-HD SUPER-HQ Full-HD 1080p One2up VIP Master Zoom ซูม หนังใหม่ ออนไลน์ มาสเตอร์ ไทย จีน ฝรั่ง การ์ตูน

[ฝรั่ง] The Domestics (2018) จะะหนีจะฆ่ามึงเลือกเอา (มันเป็นวันแห่งการแพร่กระจาย) [1080p] [พากย์อังกฤษ 5.1] [Soundtrack บรรยายไทย (แปล)] [เสียงอังกฤษ + ซับไทย] [FILECLOUD]

0

โหลดหนัง The Domestics (2018) จะะหนีจะฆ่ามึงเลือกเอา 

เรื่องย่อ The Domestics (2018) จะะหนีจะฆ่ามึงเลือกเอา

มีข่าวลืออย่างหนาหูว่ารัฐบาลตัดสินใจที่จะใช้อาวุธเ คมีเพื่อฆ่าคนส่วนใหญ่ในโลก มีคนตายมากมาย และเกือบทุกคนที่รอดชีวิตจากการโจมตีล้วนกลายเป็นบ้า กลายเป็นคนโรคจิตที่คุ้มคลั่งเเละชอบฆ่าคนชาวแก๊งค์ Nailers Plowboys Gamblers Cherries Sheet โลกกำลังปรับเปลี่ยนไปสู่การเป็นแดนเถื่อนอย่างเต็มภาคภูมิ เพราะแต่ละอาณาเขตดินแดน มีผู้ปกครองที่แสดงตน(และทีม-กลุ่ม)ของตนด้วยรูปสัญลักษณ์ต่างๆ พวกเขา(และเธอ)ต่างมีอาวุธ, ปืนอาก้า, ปืน M16 , มีด, ดาบ, ระเบิด, หรือแม้แต่รถหุ้มเกราะติดปืนกล….เพื่อปกครองดินแดนเถื่อนของตนอย่างบ้าคลั่งพร้อมที่จะไล่ฆ่าทุกคนที่หลุด เข้ามาภายในดินแดนปกครองอย่างเหี้ยมเกรียม นี่มันเกิดเรื่องห่าเหวอะไรขึ้นที่นี่กันเเน่!!

Complete name : The.Domestics.2018.1080p.AMZN.WEB-DL.DDP5.1.H.264.One2loadup.com.mkv
Format : Matroska
Format version : Version 4 / Version 2
File size : 7.10 GiB
Duration : 1 h 35 min
Overall bit rate : 10.7 Mb/s
Encoded date : UTC 2018-08-04 17:19:35
Writing application : mkvmerge v25.0.0 (‘Prog Noir’) 64-bit
Writing library : libebml v1.3.6 + libmatroska v1.4.9

Video
ID : 1
Format : AVC
Format/Info : Advanced Video Codec
Format profile : [email protected]
Format settings : CABAC / 4 Ref Frames
Format settings, CABAC : Yes
Format settings, ReFrames : 4 frames
Codec ID : V_MPEG4/ISO/AVC
Duration : 1 h 35 min
Bit rate : 10.0 Mb/s
Width : 1 920 pixels
Height : 800 pixels
Display aspect ratio : 2.40:1
Frame rate mode : Constant
Frame rate : 23.976 (24000/1001) FPS
Color space : YUV
Chroma subsampling : 4:2:0
Bit depth : 8 bits
Scan type : Progressive
Bits/(Pixel*Frame) : 0.272
Stream size : 6.67 GiB (94%)
Default : Yes
Forced : No
Color range : Limited
Color primaries : BT.709
Transfer characteristics : BT.709
Matrix coefficients : BT.709

Audio
ID : 2
Format : E-AC-3
Format/Info : Enhanced Audio Coding 3
Codec ID : A_EAC3
Duration : 1 h 35 min
Bit rate mode : Constant
Bit rate : 640 kb/s
Channel(s) : 6 channels
Channel positions : Front: L C R, Side: L R, LFE
Sampling rate : 48.0 kHz
Frame rate : 187.500 FPS (256 SPF)
Compression mode : Lossy
Stream size : 436 MiB (6%)
Language : English
Service kind : Complete Main
Default : Yes
Forced : No

Text #1
ID : 3
Format : VobSub
Muxing mode : zlib
Codec ID : S_VOBSUB
Codec ID/Info : Picture based subtitle format used on DVDs
Duration : 1 h 35 min
Bit rate : 5 196 b/s
Count of elements : 881
Stream size : 3.54 MiB (0%)
Title : Thai.VOB
Language : Thai
Default : No
Forced : Yes

Text #2
ID : 4
Format : UTF-8
Codec ID : S_TEXT/UTF8
Codec ID/Info : UTF-8 Plain Text
Duration : 1 h 35 min
Bit rate : 83 b/s
Count of elements : 881
Stream size : 58.2 KiB (0%)
Language : Thai
Default : Yes
Forced : Yes

DOWNLOAD


PART01 |||| PART02 |||| PART03 |||| PART04

PART05 |||| PART06 |||| PART07 |||| PART08

PART01 |||| PART02 |||| PART03 |||| PART04

PART05 |||| PART06 |||| PART07 |||| PART08

PART01 |||| PART02 |||| PART03 |||| PART04

PART05 |||| PART06 |||| PART07 |||| PART08

PART01 |||| PART02 |||| PART03 |||| PART04

PART05 |||| PART06 |||| PART07 |||| PART08


Leave A Reply

Your email address will not be published.

%d bloggers like this: