โหลดหนัง HD MINI-HD SUPER-HQ Full-HD 1080p VIP Master Zoom ซูม หนังใหม่ ออนไลน์ มาสเตอร์ ไทย จีน ฝรั่ง การ์ตูน

[ฝรั่ง] The Assignment (2016) เดอะ แอสไซน์ เม้นท์ [1080i] [พากย์อังกฤษ 2.0] [FoxMoviesHD] [Soundtrack บรรยายไทย] [เสียงอังกฤษ + ซับไทยฝัง] [ONE2UP]

0

โหลดหนัง  The Assignment (2016) เดอะ แอสไซน์ เม้นท์

เรื่องย่อ The Assignment (2016) เดอะ แอสไซน์ เม้นท์

เรื่องราวของชายนักฆ่า ที่ต้องถูกผ่าตัดเปลี่ยนแปลงร่างกายให้กลายเป็นผู้หญิง เพื่อปฏิบัติภารกิจบางอย่าง และเขาเองก็ไม่ได้เต็มใจสักเท่าไหร่ — นำแสดงโดย มิเชล โรดริเกซ, ซิกัวร์นีย์ วีเวอร์ และ โทนี่ แชลฮูบ

Complete name : The.Assignment.2016.1080p.Subthai.One2loadup.com.mp4
Format : MPEG-4
Format profile : Base Media / Version 2
Codec ID : mp42 (mp42/mp41)
File size : 4.28 GiB
Duration : 1 h 25 min
Overall bit rate mode : Variable
Overall bit rate : 7 119 kb/s
Encoded date : UTC 2018-09-29 23:50:15
Tagged date : UTC 2018-09-29 23:50:54
©TIM : 00:00:00:00
©TSC : 50
©TSZ : 1

Video
ID : 1
Format : AVC
Format/Info : Advanced Video Codec
Format profile : [email protected]
Format settings : CABAC / 3 Ref Frames
Format settings, CABAC : Yes
Format settings, ReFrames : 3 frames
Codec ID : avc1
Codec ID/Info : Advanced Video Coding
Duration : 1 h 25 min
Bit rate mode : Variable
Bit rate : 6 987 kb/s
Maximum bit rate : 7 200 kb/s
Width : 1 920 pixels
Height : 1 080 pixels
Display aspect ratio : 16:9
Frame rate mode : Constant
Frame rate : 50.000 FPS
Standard : PAL
Color space : YUV
Chroma subsampling : 4:2:0
Bit depth : 8 bits
Scan type : Progressive
Bits/(Pixel*Frame) : 0.067
Stream size : 4.20 GiB (98%)
Language : English
Encoded date : UTC 2018-09-29 23:50:16
Tagged date : UTC 2018-09-29 23:50:16
Color range : Limited
Color primaries : BT.709
Transfer characteristics : BT.709
Matrix coefficients : BT.709

Audio
ID : 2
Format : AAC
Format/Info : Advanced Audio Codec
Format profile : LC
Codec ID : mp4a-40-2
Duration : 1 h 25 min
Source duration : 1 h 25 min
Bit rate mode : Variable
Bit rate : 125 kb/s
Maximum bit rate : 211 kb/s
Channel(s) : 2 channels
Channel positions : Front: L R
Sampling rate : 48.0 kHz
Frame rate : 46.875 FPS (1024 SPF)
Compression mode : Lossy
Stream size : 77.1 MiB (2%)
Source stream size : 77.1 MiB (2%)
Language : English
Encoded date : UTC 2018-09-29 23:50:16
Tagged date : UTC 2018-09-29 23:50:16

DOWNLOAD


PART01 |||| PART02 |||| PART03 |||| PART04 |||| PART05

PART01 |||| PART02 |||| PART03 |||| PART04 |||| PART05

PART01 |||| PART02 |||| PART03 |||| PART04 |||| PART05

PART01 |||| PART02 |||| PART03 |||| PART04 |||| PART05


Leave A Reply

Your email address will not be published.

%d bloggers like this: