เว็บโหลดหนัง HD MINI-HD SUPER-HQ Full-HD 1080p One2up VIP Master Zoom ซูม หนังใหม่ ออนไลน์ มาสเตอร์ ไทย จีน ฝรั่ง การ์ตูน

[ฝรั่ง] Superfly (2018) ซุปเปอร์ฟลาย [1080p] [พากย์อังกฤษ DTS] [Soundtrack บรรยายไทย] [เสียงอังกฤษ + ซับไทย]

0

โหลดหนัง  Superfly (2018) ซุปเปอร์ฟลาย

เรื่องย่อ Superfly (2018) ซุปเปอร์ฟลาย

ภาพยนตร์ที่ถูกนำมาทำใหม่จากต้นฉบับดั้งเดิมปี 1972 เป็นเรื่องราวเกี่ยวกับพ่อค้าโคเคนที่ค้นพบว่าใกล้ถึงวาระสุดท้ายในชีวิตตนเองแล้วไม่เข้าคุก ก็เสียชีวิตเขาจึงตัดสินใจที่จะหลีกหนีจากชีวิตตนเองโดยจะทำการค้าที่ยิ่งใหญ่ที่สุดที่เขาเคยทำมา!!!

Complete name : SuperFly.2018.1080p.AC3.Subthai.One2loadup.com.mkv
Format : Matroska
Format version : Version 4 / Version 2
File size : 3.40 GiB
Duration : 1 h 56 min
Overall bit rate : 4 191 kb/s
Encoded date : UTC 2018-09-10 01:08:16 / UTC 2018-09-09T23:47:48Z
Writing application : mkvmerge v8.3.0 (‘Over the Horizon’) 64bit
Writing library : libebml v1.3.1 + libmatroska v1.4.2 / Lavf55.12.0

Video
ID : 1
Format : AVC
Format/Info : Advanced Video Codec
Format profile : [email protected]
Format settings : CABAC / 4 Ref Frames
Format settings, CABAC : Yes
Format settings, ReFrames : 4 frames
Codec ID : V_MPEG4/ISO/AVC
Duration : 1 h 56 min
Bit rate : 2 598 kb/s
Width : 1 920 pixels
Height : 1 036 pixels
Display aspect ratio : 1.85:1
Frame rate mode : Constant
Frame rate : 23.976 (24000/1001) FPS
Color space : YUV
Chroma subsampling : 4:2:0
Bit depth : 8 bits
Scan type : Progressive
Bits/(Pixel*Frame) : 0.054
Stream size : 2.11 GiB (62%)
Writing library : x264 core 142 r2479 dd79a61
Encoding settings : cabac=1 / ref=1 / deblock=1:0:0 / analyse=0x1:0x111 / me=hex / subme=2 / psy=1 / psy_rd=1.00:0.00 / mixed_ref=0 / me_range=16 / chroma_me=1 / trellis=0 / 8x8dct=0 / cqm=0 / deadzone=21,11 / fast_pskip=1 / chroma_qp_offset=0 / threads=6 / lookahead_threads=2 / sliced_threads=0 / nr=0 / decimate=1 / interlaced=0 / bluray_compat=0 / constrained_intra=0 / bframes=3 / b_pyramid=2 / b_adapt=1 / b_bias=0 / direct=1 / weightb=1 / open_gop=0 / weightp=1 / keyint=240 / keyint_min=24 / scenecut=40 / intra_refresh=0 / rc_lookahead=10 / rc=crf / mbtree=1 / crf=22.0 / qcomp=0.60 / qpmin=0 / qpmax=69 / qpstep=4 / vbv_maxrate=20000 / vbv_bufsize=25000 / crf_max=0.0 / nal_hrd=none / filler=0 / ip_ratio=1.40 / aq=1:1.00
Language : Thai
Default : Yes
Forced : Yes
Color range : Limited
Color primaries : BT.709
Transfer characteristics : BT.709
Matrix coefficients : BT.709
Statistics Tags Issue : mkvmerge v8.3.0 (‘Over the Horizon’) 64bit 2018-09-10 01:08:16 / mkvmerge v8.3.0 (‘Over the Horizon’) 64bit 2018-09-10 01:08:16 / UTC 2018-09-09T23:47:48Z
FromStats_BitRate : 2605708
FromStats_Duration : 01:56:10.982000000
FromStats_FrameCount : 167136
FromStats_StreamSize : 2270543494

Audio
ID : 2
Format : DTS
Format/Info : Digital Theater Systems
Codec ID : A_DTS
Duration : 1 h 56 min
Bit rate mode : Constant
Bit rate : 1 509 kb/s
Channel(s) : 6 channels
Channel positions : Front: L C R, Side: L R, LFE
Sampling rate : 48.0 kHz
Frame rate : 93.750 FPS (512 SPF)
Bit depth : 16 bits
Compression mode : Lossy
Stream size : 1.22 GiB (36%)
Title : Surround
Language : English
Default : Yes
Forced : No
Statistics Tags Issue : mkvmerge v8.3.0 (‘Over the Horizon’) 64bit 2018-09-10 01:08:16 / mkvmerge v8.3.0 (‘Over the Horizon’) 64bit 2018-09-10 01:08:16 / UTC 2018-09-09T23:47:48Z
FromStats_BitRate : 1508999
FromStats_Duration : 01:56:10.955000000
FromStats_FrameCount : 653527
FromStats_StreamSize : 1314896324

Text #1
ID : 3
Format : PGS
Muxing mode : zlib
Codec ID : S_HDMV/PGS
Codec ID/Info : Picture based subtitle format used on BDs/HD-DVDs
Language : English
Default : No
Forced : No
Statistics Tags Issue : mkvmerge v8.3.0 (‘Over the Horizon’) 64bit 2018-09-10 01:08:16 / mkvmerge v8.3.0 (‘Over the Horizon’) 64bit 2018-09-10 01:08:16 / UTC 2018-09-09T23:47:48Z
FromStats_BitRate : 33429
FromStats_Duration : 01:56:00.954000000
FromStats_FrameCount : 4143
FromStats_StreamSize : 29087547

Text #2
ID : 4
Format : PGS
Muxing mode : zlib
Codec ID : S_HDMV/PGS
Codec ID/Info : Picture based subtitle format used on BDs/HD-DVDs
Language : English
Default : No
Forced : No
Statistics Tags Issue : mkvmerge v8.3.0 (‘Over the Horizon’) 64bit 2018-09-10 01:08:16 / mkvmerge v8.3.0 (‘Over the Horizon’) 64bit 2018-09-10 01:08:16 / UTC 2018-09-09T23:47:48Z
FromStats_BitRate : 26010
FromStats_Duration : 01:47:39.036000000
FromStats_FrameCount : 3124
FromStats_StreamSize : 20999972

Text #3
ID : 5
Format : PGS
Muxing mode : zlib
Codec ID : S_HDMV/PGS
Codec ID/Info : Picture based subtitle format used on BDs/HD-DVDs
Language : Thai
Default : Yes
Forced : Yes
Statistics Tags Issue : mkvmerge v8.3.0 (‘Over the Horizon’) 64bit 2018-09-10 01:08:16 / mkvmerge v8.3.0 (‘Over the Horizon’) 64bit 2018-09-10 01:08:16 / UTC 2018-09-09T23:47:48Z
FromStats_BitRate : 16259
FromStats_Duration : 01:54:45.962000000
FromStats_FrameCount : 3194
FromStats_StreamSize : 13995353

Menu
00:00:00.000 : :Chapter 1
00:05:54.413 : :Chapter 2
00:14:24.422 : :Chapter 3
00:21:11.704 : :Chapter 4
00:28:40.069 : :Chapter 5
00:35:26.016 : :Chapter 6
00:40:37.994 : :Chapter 7
00:47:54.222 : :Chapter 8
00:54:24.612 : :Chapter 9
01:00:06.328 : :Chapter 10
01:08:10.937 : :Chapter 11
01:16:01.532 : :Chapter 12
01:22:30.671 : :Chapter 13
01:32:03.660 : :Chapter 14
01:38:20.078 : :Chapter 15
01:47:35.550 : :Chapter 16

DOWNLOAD


PART01 |||| PART02 |||| PART03 |||| PART04

PART01 |||| PART02 |||| PART03 |||| PART04

PART01 |||| PART02 |||| PART03 |||| PART04

PART01 |||| PART02 |||| PART03 |||| PART04


Leave A Reply

Your email address will not be published.

%d bloggers like this: