เว็บโหลดหนัง HD MINI-HD SUPER-HQ Full-HD 1080p One2up VIP Master Zoom ซูม หนังใหม่ ออนไลน์ มาสเตอร์ ไทย จีน ฝรั่ง การ์ตูน

[ฝรั่ง] Solo: A Star Wars Story (2018) ฮาน โซโล: ตำนานสตาร์ วอร์ส [720p] [พากย์ไทยโรง + เสียงอังกฤษ] [Modified] [เสียงไทยโรง + ซับอังกฤษ]

4

Solo: A Star Wars Story (2018) ฮาน โซโล: ตำนานสตาร์ วอร์ส

โหลดหนัง Solo: A Star Wars Story (2018) ฮาน โซโล: ตำนานสตาร์ วอร์ส

เรื่องย่อ Solo: A Star Wars Story (2018) ฮาน โซโล: ตำนานสตาร์ วอร์ส

Han Solo ด้วยยานมิลเลเนียมฟัลคอน และการผจญภัยในกาแล็กซี่อันแสนไกลโพ้น ใน Solo: A Star Wars Story นี่คือการผจญภัยครั้งใหม่ของตัวโกงที่ผู้คนหลงรักมาก ที่สุดในจักรวาล ผ่านเรื่องราวความกล้าหาญในการเข้าไปผจญในโลกใต้ดินข องเหล่าอาชญากรอันแสนอันตราย ฮาน โซโลได้พบกับสุดยอดนักบินคู่หูของเขา ชิวเบคก้า และต้องเผชิญหน้ากับนักพนันสุดร้ายกาจ Lando Calrissian ในการผจญภัยครั้งนี้จะเป็นหนึ่งในเรื่องราวของสตาร์วอร์สที่ห่างไกลจากคำว่าฮีโร่มากที่สุด

Complete name : Solo.A.Star.Wars.Story.2018.720p.BRRip.XviD.AC3.THR5.1.One2loadup.com.mkv
Format : Matroska
Format version : Version 4 / Version 2
File size : 4.33 GiB
Duration : 2 h 14 min
Overall bit rate : 4 597 kb/s
Movie name : Solo.A.Star.Wars.Story.2018.720p.BRRip.XviD.AC3.THR5.1.One2loadup.com
Encoded date : UTC 2018-09-10 19:26:10
Writing application : mkvmerge v9.9.0 (‘Pick Up’) 64bit
Writing library : libebml v1.3.4 + libmatroska v1.4.5

Video
ID : 1
Format : MPEG-4 Visual
Format profile : [email protected]
Format settings, BVOP : No
Format settings, QPel : No
Format settings, GMC : No warppoints
Format settings, Matrix : Default (H.263)
Codec ID : V_MS/VFW/FOURCC / XVID
Codec ID/Hint : XviD
Duration : 2 h 14 min
Bit rate : 3 507 kb/s
Width : 1 280 pixels
Height : 536 pixels
Display aspect ratio : 2.40:1
Frame rate mode : Constant
Frame rate : 23.976 (24000/1001) FPS
Color space : YUV
Chroma subsampling : 4:2:0
Bit depth : 8 bits
Scan type : Progressive
Compression mode : Lossy
Bits/(Pixel*Frame) : 0.213
Stream size : 3.30 GiB (76%)
Title : Solo.A.Star.Wars.Story.2018.720p.BRRip.XviD.AC3.THR5.1.One2loadup.com
Writing library : Lavc58.18.100
Language : English
Default : Yes
Forced : No

Audio #1
ID : 2
Format : AC-3
Format/Info : Audio Coding 3
Codec ID : A_AC3
Duration : 2 h 14 min
Bit rate mode : Constant
Bit rate : 448 kb/s
Channel(s) : 6 channels
Channel positions : Front: L C R, Side: L R, LFE
Sampling rate : 48.0 kHz
Frame rate : 31.250 FPS (1536 SPF)
Bit depth : 16 bits
Compression mode : Lossy
Stream size : 432 MiB (10%)
Title : ThaiRong 5.1
Language : Thai
Service kind : Complete Main
Default : Yes
Forced : Yes

Audio #2
ID : 3
Format : AC-3
Format/Info : Audio Coding 3
Codec ID : A_AC3
Duration : 2 h 14 min
Bit rate mode : Constant
Bit rate : 640 kb/s
Channel(s) : 6 channels
Channel positions : Front: L C R, Side: L R, LFE
Sampling rate : 48.0 kHz
Frame rate : 31.250 FPS (1536 SPF)
Bit depth : 16 bits
Compression mode : Lossy
Stream size : 617 MiB (14%)
Title : English 5.1 @ 640 kb/s
Language : English
Service kind : Complete Main
Default : No
Forced : No

Text
ID : 4
Format : UTF-8
Codec ID : S_TEXT/UTF8
Codec ID/Info : UTF-8 Plain Text
Duration : 2 h 5 min
Bit rate : 56 b/s
Count of elements : 1957
Stream size : 51.9 KiB (0%)
Title : English
Language : English
Default : Yes
Forced : No

 

DOWNLOAD


PART01 |||| PART02 |||| PART03 |||| PART04 |||| PART05

PART01 |||| PART02 |||| PART03 |||| PART04 |||| PART05

PART01 |||| PART02 |||| PART03 |||| PART04 |||| PART05

PART01 |||| PART02 |||| PART03 |||| PART04 |||| PART05


4 Comments
  1. tar says

    ไม่มีซับไทย

    1. Admin
      Admin says

      ขออภัยพอดี เห็นมี text แต่ลืมดู มันเป็นซับ Eng เนอะ ^^

  2. Wanda says

    แอดคะ ทำไมสายฟรีโหลด filecloud มาละมันเปิดไม่ได้อะคะ คือมันขึ้นว่า Error ตลอดเลย แทบจะทุกเรื่องที่อัพมาตั้งแต่ประมาณหลายเดือนก่อนแล้วอะค่ะ

    1. Admin
      Admin says

      ไม่ทราบว่าใช้ winrar version ไหนในการแยกไฟล์ฮ๊ะ แนะนำให้ใช้ version ล่าสุด ในการแยกไฟล์นะฮ๊ะ

Leave A Reply

Your email address will not be published.

%d bloggers like this: