โหลดหนัง HD MINI-HD SUPER-HQ Full-HD 1080p VIP Master Zoom ซูม หนังใหม่ ออนไลน์ มาสเตอร์ ไทย จีน ฝรั่ง การ์ตูน

[ฝรั่ง] Sicario Day of the Soldado (2018) ทีมพิฆาตทะลุแดนเดือด 2 [1080p] [พากย์ไทยโรง 2.0 + เสียงอังกฤษ 5.1] [บรรยายอังกฤษ] [เสียงไทยโรง + ซับอังกฤษ]

0

โหลดหนัง  Sicario Day of the Soldado (2018) ทีมพิฆาตทะลุแดนเดือด 2

เรื่องย่อ Sicario Day of the Soldado (2018) ทีมพิฆาตทะลุแดนเดือด 2

ยังคงเล่าถึงการเดินหน้าปราบปรามกลุ่มค้ายาเสพติดที่ ชายแดนสหรัฐฯ-เม็กซิโก แต่ครั้งนี้สถานการณ์กลับทวีความรุนแรงยิ่งขึ้น เนื่องจากกลุ่มค้ายาเสพติดได้พยายามส่งผู้ก่อการร้าย ข้ามพรมแดนมายังสหรัฐฯ ดังนั้นเพื่อการรับมือต่อกร “แมตต์ เกรเวอร์” หน่วยกองกำลังเฉพาะกิจของรัฐบาล จึงต้องร่วมมือกับนายทหารรับจ้าง “อเลฮานโดร” เพื่อฝ่าอันตรายทำภารกิจเดือดแห่งสงครามยาเสพติดครั้งใหญ่ ด้วยการลักพาตัว อิสซาเบลล่า เรเยส ลูกสาวของราชายาเสพติดมาเพื่อจุดความขัดแย้งระหว่างแก๊งค์ จนนำไปสู่สงครามระดับประเทศเต็มรูปแบบชนิดไร้กฎเกณฑ์

Complete name : Sicario.Day.of.the.Soldado.2018.1080p.WEB-DL.DDP5.1.H.264.One2loadup.com.mkv
Format : Matroska
Format version : Version 4 / Version 2
File size : 4.84 GiB
Duration : 2 h 2 min
Overall bit rate : 5 664 kb/s
Encoded date : UTC 2018-09-17 01:48:34
Writing application : mkvmerge v17.0.0 (‘Be Ur Friend’) 64-bit
Writing library : libebml v1.3.5 + libmatroska v1.4.8

Video
ID : 1
Format : AVC
Format/Info : Advanced Video Codec
Format profile : [email protected]
Format settings : CABAC / 4 Ref Frames
Format settings, CABAC : Yes
Format settings, ReFrames : 4 frames
Codec ID : V_MPEG4/ISO/AVC
Duration : 2 h 2 min
Bit rate : 4 926 kb/s
Width : 1 920 pixels
Height : 800 pixels
Display aspect ratio : 2.40:1
Frame rate mode : Constant
Frame rate : 23.976 (24000/1001) FPS
Color space : YUV
Chroma subsampling : 4:2:0
Bit depth : 8 bits
Scan type : Progressive
Bits/(Pixel*Frame) : 0.134
Stream size : 4.21 GiB (87%)
Default : Yes
Forced : No
Color range : Limited
Color primaries : BT.709
Transfer characteristics : BT.709
Matrix coefficients : BT.709

Audio #1
ID : 2
Format : E-AC-3
Format/Info : Enhanced Audio Coding 3
Codec ID : A_EAC3
Duration : 2 h 2 min
Bit rate mode : Constant
Bit rate : 640 kb/s
Channel(s) : 6 channels
Channel positions : Front: L C R, Side: L R, LFE
Sampling rate : 48.0 kHz
Frame rate : 187.500 FPS (256 SPF)
Compression mode : Lossy
Stream size : 560 MiB (11%)
Language : English
Service kind : Complete Main
Default : Yes
Forced : No

Audio #2
ID : 4
Format : AAC
Format/Info : Advanced Audio Codec
Format profile : LC
Codec ID : A_AAC-2
Duration : 2 h 2 min
Bit rate : 96.0 kb/s
Channel(s) : 2 channels
Channel positions : Front: L R
Sampling rate : 44.1 kHz
Frame rate : 43.066 FPS (1024 SPF)
Compression mode : Lossy
Stream size : 84.0 MiB (2%)
Language : Thai
Default : No
Forced : No

Text
ID : 3
Format : UTF-8
Codec ID : S_TEXT/UTF8
Codec ID/Info : UTF-8 Plain Text
Duration : 2 h 1 min
Bit rate : 32 b/s
Count of elements : 1176
Stream size : 29.1 KiB (0%)
Title : SDH
Language : English
Default : No
Forced : No

DOWNLOAD


PART01 |||| PART02 |||| PART03 |||| PART04 |||| PART05

PART01 |||| PART02 |||| PART03 |||| PART04 |||| PART05

PART01 |||| PART02 |||| PART03 |||| PART04 |||| PART05

PART01 |||| PART02 |||| PART03 |||| PART04 |||| PART05


Leave A Reply

Your email address will not be published.

%d bloggers like this: