เว็บโหลดหนัง HD MINI-HD SUPER-HQ Full-HD 1080p One2up VIP Master Zoom ซูม หนังใหม่ ออนไลน์ มาสเตอร์ ไทย จีน ฝรั่ง การ์ตูน

[ฝรั่ง] Sherlock Gnomes (2018) เชอร์ล็อค โนมส์ [1080p] [พากย์ไทยโรง 5.1 + เสียงอังกฤษ 5.1] [บรรยายอังกฤษ] [เสียงไทยโรง] [ONE2UP]

1

โหลดหนัง Sherlock Gnomes (2018) เชอร์ล็อค โนมส์ 

เรื่องย่อ Sherlock Gnomes (2018) เชอร์ล็อค โนมส์

ตัวโนม ตุ๊กตาในสวนที่แฟน ๆ รักจาก Gnomeo and Juliet กลับมาอีกครั้ง เพื่อผจญภัยครั้งใหม่ในกรุงลอนดอน ในตอนที่โนมิโอและจูเลียตได้มาถึงนครหลวงแห่งนี้เป็น ครั้งแรกพร้อมกับผองเพื่อนและคอบครัว สิ่งที่พวกเขากังวลที่สุดคือการเตรียมสวนใหม่ของพวกเขาให้พร้อมสำหรับฤดูใบไม้ผลิ ไม่นานนักพวกเขาก็ได้ค้นพบว่ามีใครบางคนกำลังลักพาตัวโนมสวนทั่วทั้งลอนดอน ในตอนที่โนมิโอและจูเลียตกลับมาบ้านและพบว่าทุกคนในสวนของพวกเขาหายตัวไป พวกเขาก็สามารถพึ่งพาโนมได้ตัวเดียวเท่านั้น… เขาก็คือเชอร์ล็อค โนมส์ นักสืบเรืองนาม ผู้สาบานตนว่าจะคุ้มครองโนมสวนประจำกรุงลอนดอน เขาปรากฏตัวพร้อมกับไซด์คิกคู่ใจ วัตสัน เพื่อสืบคดีนี้ และปริศนาลึกลับครั้งนี้ก็จะนำโนมของเราไปสู่การผจญภัยสุดหฤหรรษ์ ที่ซึ่งพวกเขาจะได้พบกับของตกแต่งบ้านใหม่ ๆ และได้สำรวจมุมที่ไม่เคยถูกสำรวจมาก่อนของเมือง

Complete name : Sherlock.Gnomes.2018.1080p.BluRay.H264.AAC.One2loadup.com.mkv
Format : Matroska
Format version : Version 4 / Version 2
File size : 1.92 GiB
Duration : 1 h 26 min
Overall bit rate : 3 180 kb/s
Movie name : Sherlock.Gnomes.2018.1080p.BluRay.H264.AAC.One2loadup.com
Encoded date : UTC 2018-06-03 17:06:14
Writing application : mkvmerge v23.0.0 (‘The Bride Said No’) 64-bit
Writing library : libebml v1.3.6 + libmatroska v1.4.9
Cover : Yes
Attachments : cover.jpg

Video
ID : 1
Format : AVC
Format/Info : Advanced Video Codec
Format profile : [email protected]
Format settings : CABAC / 4 Ref Frames
Format settings, CABAC : Yes
Format settings, ReFrames : 4 frames
Codec ID : V_MPEG4/ISO/AVC
Duration : 1 h 26 min
Bit rate : 2 500 kb/s
Width : 1 920 pixels
Height : 808 pixels
Display aspect ratio : 2.40:1
Frame rate mode : Constant
Frame rate : 23.976 (23976/1000) FPS
Color space : YUV
Chroma subsampling : 4:2:0
Bit depth : 8 bits
Scan type : Progressive
Bits/(Pixel*Frame) : 0.067
Stream size : 1.51 GiB (79%)
Title : Sherlock.Gnomes.2018.1080p.BluRay.H264.AAC.One2loadup.com
Writing library : x264 core 152 r2851M ba24899
Encoding settings : cabac=1 / ref=4 / deblock=1:-1:-1 / analyse=0x3:0x113 / me=umh / subme=9 / psy=1 / psy_rd=1.00:0.15 / mixed_ref=1 / me_range=24 / chroma_me=1 / trellis=2 / 8x8dct=1 / cqm=0 / deadzone=21,11 / fast_pskip=1 / chroma_qp_offset=-3 / threads=32 / lookahead_threads=4 / sliced_threads=0 / nr=0 / decimate=1 / interlaced=0 / bluray_compat=0 / constrained_intra=0 / bframes=3 / b_pyramid=2 / b_adapt=2 / b_bias=0 / direct=3 / weightb=1 / open_gop=0 / weightp=2 / keyint=250 / keyint_min=25 / scenecut=40 / intra_refresh=0 / rc_lookahead=50 / rc=2pass / mbtree=1 / bitrate=2500 / ratetol=1.0 / qcomp=0.60 / qpmin=0 / qpmax=69 / qpstep=4 / cplxblur=20.0 / qblur=0.5 / vbv_maxrate=31250 / vbv_bufsize=31250 / nal_hrd=none / filler=0 / ip_ratio=1.40 / aq=3:1.00
Default : Yes
Forced : No

Audio #1
ID : 2
Format : AC-3
Format/Info : Audio Coding 3
Codec ID : A_AC3
Duration : 1 h 26 min
Bit rate mode : Constant
Bit rate : 448 kb/s
Channel(s) : 6 channels
Channel positions : Front: L C R, Side: L R, LFE
Sampling rate : 48.0 kHz
Frame rate : 31.250 FPS (1536 SPF)
Bit depth : 16 bits
Compression mode : Lossy
Delay relative to video : 707 ms
Stream size : 277 MiB (14%)
Title : Thai Rong 5.1
Language : Thai
Service kind : Complete Main
Default : Yes
Forced : Yes

Audio #2
ID : 3
Format : AAC
Format/Info : Advanced Audio Codec
Format profile : LC
Codec ID : A_AAC-2
Duration : 1 h 26 min
Bit rate : 224 kb/s
Channel(s) : 6 channels
Channel positions : Front: L C R, Side: L R, LFE
Sampling rate : 48.0 kHz
Frame rate : 46.875 FPS (1024 SPF)
Compression mode : Lossy
Delay relative to video : -43 ms
Stream size : 138 MiB (7%)
Title : English 5.1
Language : English
Default : No
Forced : No

Text #1
ID : 4
Format : VobSub
Muxing mode : zlib
Codec ID : S_VOBSUB
Codec ID/Info : Picture based subtitle format used on DVDs
Duration : 1 h 24 min
Bit rate : 10.8 kb/s
Count of elements : 1128
Stream size : 6.56 MiB (0%)
Title : English
Language : English
Default : Yes
Forced : No

Text #2
ID : 5
Format : UTF-8
Codec ID : S_TEXT/UTF8
Codec ID/Info : UTF-8 Plain Text
Duration : 1 h 25 min
Bit rate : 77 b/s
Count of elements : 1568
Stream size : 48.3 KiB (0%)
Title : English SRT
Language : English
Default : No
Forced : No

DOWNLOAD


PART01 |||| PART02

PART01 |||| PART02

PART01 |||| PART02

PART01 |||| PART02


1 Comment
  1. Tonkmutt
    Tonkmutt says

    part 2 โหลดไม่ได้แล้วครับ

Leave A Reply

Your email address will not be published.

%d bloggers like this: