โหลดหนัง HD MINI-HD SUPER-HQ Full-HD 1080p VIP Master Zoom ซูม หนังใหม่ ออนไลน์ มาสเตอร์ ไทย จีน ฝรั่ง การ์ตูน

[ฝรั่ง] RAW (GRAVE) (2017) สวยกัดดิบ [1080p] [พากย์อังกฤษ 5.1] [Soundtrack บรรยายไทย] [เสียงอังกฤษ + ซับไทย] [ONE2UP]

4

โหลดหนัง  RAW (GRAVE) (2017) สวยกัดดิบ

เรื่องย่อ RAW (GRAVE) (2017) สวยกัดดิบ

จัสติน วัยรุ่นสาวที่โตมาในครอบครัวที่เป็นมังสวิรัติ ถูกรุ่นพี่ในคณะรับน้องโดยการรับประทานตับกระต่ายดิบ ๆจนทำให้เธอเป็นผื่น แต่หารู้ไม่ว่าในเวลาต่อมาเธอเริ่มติดใจรสชาติของเนื้อดิบๆมากขึ้น ทั้งเนื้อหมู ไก่ วัว ไม่เว้นแม้กระทั่ง……เนื้อคน

Complete name : Raw.2016.1080.WEB-DL.DD5.1.H264.One2loadup.com.mkv
Format : Matroska
Format version : Version 4 / Version 2
File size : 3.57 GiB
Duration : 1 h 38 min
Overall bit rate : 5 184 kb/s
Movie name : Raw.2016.1080.WEB-DL.DD5.1.H264.One2loadup.com
Encoded date : UTC 2018-07-02 13:47:27
Writing application : mkvmerge v7.8.0 (‘River Man’) 32bit built on Mar 27 2015 16:18:02
Writing library : libebml v1.3.1 + libmatroska v1.4.2
Cover : Yes
Attachments : cover.jpg / cover_land.jpg / small_cover.jpg / small_cover_land.jpg

Video
ID : 1
Format : AVC
Format/Info : Advanced Video Codec
Format profile : [email protected]
Format settings : CABAC / 5 Ref Frames
Format settings, CABAC : Yes
Format settings, ReFrames : 5 frames
Format settings, GOP : N=1
Codec ID : V_MPEG4/ISO/AVC
Duration : 1 h 38 min
Bit rate : 4 540 kb/s
Width : 1 916 pixels
Height : 800 pixels
Display aspect ratio : 2.40:1
Frame rate mode : Constant
Frame rate : 23.976 (23976/1000) FPS
Color space : YUV
Chroma subsampling : 4:2:0
Bit depth : 8 bits
Scan type : Progressive
Bits/(Pixel*Frame) : 0.124
Stream size : 3.13 GiB (88%)
Title : Raw.2016.1080.WEB-DL.DD5.1.H264.One2loadup.com
Language : English
Default : Yes
Forced : No
Color range : Limited
Color primaries : BT.709
Transfer characteristics : BT.709
Matrix coefficients : BT.709

Audio #1
ID : 2
Format : AC-3
Format/Info : Audio Coding 3
Codec ID : A_AC3
Duration : 1 h 38 min
Bit rate mode : Constant
Bit rate : 384 kb/s
Channel(s) : 6 channels
Channel positions : Front: L C R, Side: L R, LFE
Sampling rate : 48.0 kHz
Frame rate : 31.250 FPS (1536 SPF)
Bit depth : 16 bits
Compression mode : Lossy
Delay relative to video : -42 ms
Stream size : 271 MiB (7%)
Language : English
Service kind : Complete Main
Default : Yes
Forced : No

Audio #2
ID : 3
Format : AC-3
Format/Info : Audio Coding 3
Codec ID : A_AC3
Duration : 1 h 38 min
Bit rate mode : Constant
Bit rate : 256 kb/s
Channel(s) : 2 channels
Channel positions : Front: L R
Sampling rate : 48.0 kHz
Frame rate : 31.250 FPS (1536 SPF)
Bit depth : 16 bits
Compression mode : Lossy
Delay relative to video : -42 ms
Stream size : 180 MiB (5%)
Language : English
Service kind : Complete Main
Default : No
Forced : No

Text #1
ID : 4
Format : VobSub
Muxing mode : zlib
Codec ID : S_VOBSUB
Codec ID/Info : Picture based subtitle format used on DVDs
Duration : 1 h 30 min
Bit rate : 22 b/s
Count of elements : 28
Stream size : 15.1 KiB (0%)
Language : English
Default : Yes
Forced : No

Text #2
ID : 5
Format : VobSub
Muxing mode : zlib
Codec ID : S_VOBSUB
Codec ID/Info : Picture based subtitle format used on DVDs
Duration : 1 h 30 min
Bit rate : 1 703 b/s
Count of elements : 705
Stream size : 1.11 MiB (0%)
Language : Italian
Default : No
Forced : No

DOWNLOAD


PART01 |||| PART02 |||| PART03 |||| PART04

PART01 |||| PART02 |||| PART03 |||| PART04

PART01 |||| PART02 |||| PART03 |||| PART04

PART01 |||| PART02 |||| PART03 |||| PART04


4 Comments
  1. ฺฺฺฺBB says

    โหลดมาแล้วมันแตกไฟล์ไม่ได้อ่ะครับ รบกวนแก้ไขให้หน่อยนะครับ

    1. Admin
      Admin says

      แนะนำใช้ winrar version ล่าสุดฮ๊ะ

  2. Expolite
    Expolite says

    โหลดมาแล้วมันแตกไฟล์ไม่ได้ตั้งแต่ part แรกเลยอ่ะครับ ลองเปลี่ยนทั้งของ one2up และ filecloud ก็เป็นเหมือนกันเลย

    1. Admin
      Admin says

      แนะนำใช้ winrar version ล่าสุดฮ๊ะ

Leave A Reply

Your email address will not be published.

%d bloggers like this: