[ฝรั่ง] Pokémon Detective Pikachu (2019) โปเกมอน ยอดนักสืบพิคาชู [1080p] [พากย์ไทยโรง 2.0 + เสียงอังกฤษ 5.1] [ไม่มีบรรยาย] [ภาพชัดระดับมาสเตอร์ + เสียงไทยโรง] [OPENLOAD]

0

Pokémon Detective Pikachu (2019)

โหลดหนัง Pokémon Detective Pikachu (2019) โปเกมอน ยอดนักสืบพิคาชู

Pokémon Detective Pikachu (2019) 1h 44min | Action, Adventure, Comedy | 8 May 2019 (Netherlands) Summary: In a world where people collect Pokémon to do battle, a boy comes across an intelligent talking Pikachu who seeks to be a detective.
Countries: USA, Japan, CanadaLanguages: English

เรื่องย่อ Pokémon Detective Pikachu (2019) โปเกมอน ยอดนักสืบพิคาชู

Pokemon Detective Pikachu เรื่องราวเริ่มขึ้นเมื่อ แฮร์รี่ กู๊ดแมน นักสืบเอกชนมือหนึ่งหายตัวไปอย่างลึกลับ ทำให้ทิมลูกชายวัย 21 ปี ต้องค้นหาว่าเกิดอะไรขึ้นที่มาช่วยเขาสืบหาเบาะแสคือโปเกมอนคู่หูของแฮร์รี่ นักสืบพิคาชู โปเกมอนฝีปากคมกริบ เจ้าแห่งการแกะรอยสุดน่ารักที่บางทีติดจะมึนๆ หน่อยๆ ทั้งคู่พบว่าพวกเขาสามารถสื่อสารกันได้อย่างลงตัวแปลกใหม่ ทิมและพิคาชูต้องร่วมกันสู้ในการผจญภัยระทึกขวัญเพื่อไขปริศนาสุดยุ่งเหยิงไล่ตามเบาะแสร่วมกันสู่ถนนนีออนลิทแห่งเมืองไรม์เมืองทันสมัยที่มนุษย์และโปเกมอนอยู่ร่วมกันในรูปแบบไลฟ์แอคชั่นสมจริง พวกเขาพบกับโปเกมอนหลากหลาย ค้นพบแผนการณ์สุดสะพรึงที่อาจทำลายความสงบสุขของทั้งจักรวาลโปเกมอน!!

Complete name : Pokémon.Detective.Pikachu.2019.1080p.HDRip.X264.AC3.One2loadup.com.mkv
Format : Matroska
Format version : Version 4
File size : 3.82 GiB
Duration : 1 h 37 min
Overall bit rate : 5 618 kb/s
Movie name : Pokémon.Detective.Pikachu.2019.1080p.HDRip.X264.AC3.One2loadup.com
Encoded date : UTC 2019-06-06 04:58:58
Writing application : mkvmerge v33.1.0 (‘Primrose’) 64-bit
Writing library : libebml v1.3.7 + libmatroska v1.5.0

Video
ID : 2
Format : AVC
Format/Info : Advanced Video Codec
Format profile : [email protected]
Format settings : CABAC / 5 Ref Frames
Format settings, CABAC : Yes
Format settings, ReFrames : 5 frames
Codec ID : V_MPEG4/ISO/AVC
Title : [Zoom]_Pokémon.Detective.Pikachu.2019.1080p.HDRip.X264.AC3.One2loadup.com
Duration : 1 h 37 min
Bit rate : 4 897 kb/s
Width : 1 920 pixels
Height : 800 pixels
Display aspect ratio : 2.40:1
Frame rate mode : Constant
Frame rate : 30.303 FPS
Color space : YUV
Chroma subsampling : 4:2:0
Bit depth : 8 bits
Scan type : Progressive
Bits/(Pixel*Frame) : 0.105
Stream size : 3.35 GiB (88%)
Writing library : x264 core 142 r2479 dd79a61
Encoding settings : cabac=1 / ref=5 / deblock=1:0:0 / analyse=0x3:0x113 / me=umh / subme=8 / psy=1 / psy_rd=1.00:0.00 / mixed_ref=1 / me_range=16 / chroma_me=1 / trellis=1 / 8x8dct=1 / cqm=0 / deadzone=21,11 / fast_pskip=1 / chroma_qp_offset=-2 / threads=24 / lookahead_threads=4 / sliced_threads=0 / nr=0 / decimate=1 / interlaced=0 / bluray_compat=0 / constrained_intra=0 / bframes=3 / b_pyramid=2 / b_adapt=2 / b_bias=0 / direct=3 / weightb=1 / open_gop=0 / weightp=2 / keyint=300 / keyint_min=30 / scenecut=40 / intra_refresh=0 / rc_lookahead=50 / rc=abr / mbtree=1 / bitrate=4897 / ratetol=1.0 / qcomp=0.60 / qpmin=0 / qpmax=69 / qpstep=4 / vbv_maxrate=62500 / vbv_bufsize=78125 / nal_hrd=none / filler=0 / ip_ratio=1.40 / aq=1:1.00
Default : Yes
Forced : No
Color range : Limited
Color primaries : BT.709
Transfer characteristics : BT.709
Matrix coefficients : BT.709

Audio #1
ID : 1
Format : AC-3
Format/Info : Audio Coding 3
Commercial name : Dolby Digital
Codec ID : A_AC3
Duration : 1 h 37 min
Bit rate mode : Constant
Bit rate : 384 kb/s
Channel(s) : 6 channels
Channel layout : L R C LFE Ls Rs
Sampling rate : 48.0 kHz
Frame rate : 31.250 FPS (1536 SPF)
Bit depth : 16 bits
Compression mode : Lossy
Delay relative to video : -64 ms
Stream size : 267 MiB (7%)
Language : English
Service kind : Complete Main
Default : No
Forced : No

Audio #2
ID : 3
Format : AAC LC
Format/Info : Advanced Audio Codec Low Complexity
Codec ID : A_AAC-2
Duration : 1 h 37 min
Bit rate : 302 kb/s
Channel(s) : 6 channels
Channel layout : C L R Ls Rs LFE
Sampling rate : 48.0 kHz
Frame rate : 46.875 FPS (1024 SPF)
Compression mode : Lossy
Delay relative to video : -66 ms
Stream size : 210 MiB (5%)
Title : เสียงไทยโรง
Language : Thai
Default : Yes
Forced : Yes

DOWNLOAD


PART01 |||| PART02 |||| PART03 |||| PART04

PART01 |||| PART02 |||| PART03 |||| PART04

PART01 |||| PART02 |||| PART03 |||| PART04

PART01 |||| PART02 |||| PART03 |||| PART04


Leave A Reply

Your email address will not be published.

%d bloggers like this: