โหลดหนัง HD MINI-HD SUPER-HQ Full-HD 1080p VIP Master Zoom ซูม หนังใหม่ ออนไลน์ มาสเตอร์ ไทย จีน ฝรั่ง การ์ตูน

[ฝรั่ง] Peppermint (2018) นางฟ้าห่ากระสุน [1080p] [พากย์ไทยโรง 2.0 + เสียงอังกฤษ 5.1] [Modified] [เสียงไทยโรงครบ!]

0

Peppermint (2018) นางฟ้าห่ากระสุน

โหลดหนัง Peppermint (2018) นางฟ้าห่ากระสุน 

เรื่องย่อ Peppermint (2018) นางฟ้าห่ากระสุน

เรื่องราวของ ไรลี่ย์ นอร์ท (เจนนิเฟอร์ การ์เนอร์) ผู้ที่สามีและลูกสาวของเธอ ถูกแก๊งค้ายาเสพติดฆ่าตายต่อหน้าต่อตา เธอรู้ตัวฆาตกรและเชื่อมั่นว่ากฎหมายจะสามารถเอาผิดพ วกเขาได้ แต่กลับไม่เป็นเช่นนั้น เมื่อศาลไม่สามารถลงโทษ และพวกเขากำลังลอยหน้าลอยตา ท่ามกลางความผิดหวังและโศกเศร้า ความเคียดแค้นจึงผลักดันให้ไรลี่ย์เปลี่ยนแปลงและฝึก ฝนตัวเองให้กลายเป็นนักฆ่า แล้วพิพากษาทรชนให้สาสมด้วยของตัวเธอเอง !!!

Complete name : Peppermint.2018.1080p.WEB-DL.x264.AC3.THR2.0.One2loadup.com.mkv
Format : Matroska
Format version : Version 4
File size : 3.65 GiB
Duration : 1 h 41 min
Overall bit rate : 5 147 kb/s
Movie name : Peppermint.2018.1080p.WEB-DL.x264.AC3.THR2.0.One2loadup.com
Encoded date : UTC 2018-11-23 06:26:26
Writing application : mkvmerge v25.0.0 (‘Prog Noir’) 64-bit
Writing library : libebml v1.3.6 + libmatroska v1.4.9
Cover : Yes
Attachments : cover_land.jpg / small_cover.jpg / small_cover_land.jpg / cover.jpg

Video
ID : 1
Format : AVC
Format/Info : Advanced Video Codec
Format profile : [email protected]
Format settings : CABAC / 5 Ref Frames
Format settings, CABAC : Yes
Format settings, ReFrames : 5 frames
Codec ID : V_MPEG4/ISO/AVC
Duration : 1 h 41 min
Bit rate : 4 569 kb/s
Width : 1 912 pixels
Height : 800 pixels
Display aspect ratio : 2.40:1
Frame rate mode : Constant
Frame rate : 23.976 (23976/1000) FPS
Color space : YUV
Chroma subsampling : 4:2:0
Bit depth : 8 bits
Scan type : Progressive
Bits/(Pixel*Frame) : 0.125
Stream size : 3.24 GiB (89%)
Title : Peppermint.2018.1080p.WEB-DL.x264.AC3.THR2.0.One2loadup.com
Language : English
Default : Yes
Forced : No
Color range : Limited
Color primaries : BT.709
Transfer characteristics : BT.709
Matrix coefficients : BT.709

Audio #1
ID : 2
Format : AC-3
Format/Info : Audio Coding 3
Commercial name : Dolby Digital
Codec ID : A_AC3
Duration : 1 h 41 min
Bit rate mode : Constant
Bit rate : 192 kb/s
Channel(s) : 2 channels
Channel layout : L R
Sampling rate : 48.0 kHz
Frame rate : 31.250 FPS (1536 SPF)
Bit depth : 16 bits
Compression mode : Lossy
Delay relative to video : -42 ms
Stream size : 140 MiB (4%)
Title : Thai Rong 2.0
Language : Thai
Service kind : Complete Main
Default : Yes
Forced : No

Audio #2
ID : 3
Format : AC-3
Format/Info : Audio Coding 3
Commercial name : Dolby Digital
Codec ID : A_AC3
Duration : 1 h 41 min
Bit rate mode : Constant
Bit rate : 384 kb/s
Channel(s) : 6 channels
Channel layout : L R C LFE Ls Rs
Sampling rate : 48.0 kHz
Frame rate : 31.250 FPS (1536 SPF)
Bit depth : 16 bits
Compression mode : Lossy
Delay relative to video : -42 ms
Stream size : 279 MiB (7%)
Title : English 5.1
Language : English
Service kind : Complete Main
Default : No
Forced : No

Menu
00:00:00.000 : en:1
00:11:48.000 : en:2
00:22:54.000 : en:3
00:37:40.000 : en:4
00:52:25.000 : en:5
01:02:43.000 : en:6
01:14:12.000 : en:7
01:25:05.000 : en:8
01:34:40.000 : en:9

DOWNLOAD


PART01 |||| PART02 |||| PART03 |||| PART04

PART01 |||| PART02 |||| PART03 |||| PART04

PART01 |||| PART02 |||| PART03 |||| PART04

PART01 |||| PART02 |||| PART03 |||| PART04


Leave A Reply

Your email address will not be published.

%d bloggers like this: