โหลดหนัง HD MINI-HD SUPER-HQ Full-HD 1080p VIP Master Zoom ซูม หนังใหม่ ออนไลน์ มาสเตอร์ ไทย จีน ฝรั่ง การ์ตูน

[ฝรั่ง] Mission: Impossible Fallout (2018) มิชชั่น:อิมพอสซิเบิ้ล ฟอลล์เอาท์ [1080p] [พากย์ไทยโรง 2.0 + เสียงอังกฤษ 2.0] [บรรยายเกาหลีฝัง] [Modified] [เสียงไทยโรง + ซับเกาหลี]

0

โหลดหนัง  Mission: Impossible Fallout (2018) มิชชั่น:อิมพอสซิเบิ้ล ฟอลล์เอาท์

เรื่องย่อ Mission: Impossible Fallout (2018) มิชชั่น:อิมพอสซิเบิ้ล ฟอลล์เอาท์

อีธาน ฮันท์ (ทอม ครูซ) และทีม IMF (อเล็ก บอลด์วิน, ไซม่อน เพ็กก์, วิง เรมส์) พร้อมด้วยพันธมิตร (รีเบ็คกา เฟอร์กูสัน และมิเชลล์ โมนาแฮน) ต้องกลับมาในปฏิบัติการที่ต้องแข่งกับเวลาหลังจากที่ ภารกิจเกิดความผิดพลาด นอกเหนือจากนักแสดงทีมเดิมแล้ว ภาพยนตร์ยังได้ เฮนรี่ คาวิลล์, แองเจลา บาสเส็ตต์ และ วาเนสซา เคอร์บี้ มาร่วมงานด้วย !!!

Complete name : Mission.Impossible.Fallout.2018.1080p.KORSUB.HDRip.x264.AC3.THR2.0.One2loadup.com.mkv
Format : Matroska
Format version : Version 4 / Version 2
File size : 7.09 GiB
Duration : 2 h 27 min
Overall bit rate : 6 897 kb/s
Encoded date : UTC 2018-09-15 05:10:47
Writing application : mkvmerge v25.0.0 (‘Prog Noir’) 64-bit
Writing library : libebml v1.3.6 + libmatroska v1.4.9

Video
ID : 1
Format : AVC
Format/Info : Advanced Video Codec
Format profile : [email protected]
Format settings : CABAC / 4 Ref Frames
Format settings, CABAC : Yes
Format settings, ReFrames : 4 frames
Codec ID : V_MPEG4/ISO/AVC
Duration : 2 h 27 min
Bit rate : 6 500 kb/s
Width : 1 920 pixels
Height : 800 pixels
Display aspect ratio : 2.40:1
Frame rate mode : Constant
Frame rate : 29.970 (30000/1001) FPS
Color space : YUV
Chroma subsampling : 4:2:0
Bit depth : 8 bits
Scan type : Progressive
Bits/(Pixel*Frame) : 0.141
Stream size : 6.63 GiB (93%)
Title : Mission.Impossible.Fallout.2018.1080p.KORSUB.HDRip.x264.AC3.THR2.0.One2loadup.com
Writing library : x264 core 148 r2795M aaa9aa8
Encoding settings : cabac=1 / ref=4 / deblock=1:0:0 / analyse=0x3:0x113 / me=umh / subme=9 / psy=1 / psy_rd=1.00:0.00 / mixed_ref=1 / me_range=16 / chroma_me=1 / trellis=2 / 8x8dct=1 / cqm=0 / deadzone=21,11 / fast_pskip=1 / chroma_qp_offset=-2 / threads=40 / lookahead_threads=3 / sliced_threads=0 / nr=0 / decimate=1 / interlaced=0 / bluray_compat=0 / constrained_intra=0 / bframes=3 / b_pyramid=2 / b_adapt=2 / b_bias=0 / direct=3 / weightb=1 / open_gop=0 / weightp=2 / keyint=250 / keyint_min=25 / scenecut=40 / intra_refresh=0 / rc_lookahead=50 / rc=abr / mbtree=1 / bitrate=6500 / ratetol=1.0 / qcomp=0.60 / qpmin=0 / qpmax=69 / qpstep=4 / ip_ratio=1.40 / aq=1:1.00
Default : Yes
Forced : No

Audio #1
ID : 2
Format : AC-3
Format/Info : Audio Coding 3
Codec ID : A_AC3
Duration : 2 h 27 min
Bit rate mode : Constant
Bit rate : 192 kb/s
Channel(s) : 2 channels
Channel positions : Front: L R
Sampling rate : 48.0 kHz
Frame rate : 31.250 FPS (1536 SPF)
Bit depth : 16 bits
Compression mode : Lossy
Stream size : 202 MiB (3%)
Title : Thai Rong 2.0
Language : Thai
Service kind : Complete Main
Default : Yes
Forced : No

Audio #2
ID : 3
Format : AAC
Format/Info : Advanced Audio Codec
Format profile : LC
Codec ID : A_AAC-2
Duration : 2 h 27 min
Bit rate : 256 kb/s
Channel(s) : 2 channels
Channel positions : Front: L R
Sampling rate : 48.0 kHz
Frame rate : 46.875 FPS (1024 SPF)
Compression mode : Lossy
Delay relative to video : 142 ms
Stream size : 270 MiB (4%)
Title : English 2.0
Language : English
Default : No
Forced : No

DOWNLOAD


PART01 |||| PART02 |||| PART03 |||| PART04

PART05 |||| PART06 |||| PART07 |||| PART08

PART01 |||| PART02 |||| PART03 |||| PART04

PART05 |||| PART06 |||| PART07 |||| PART08

PART01 |||| PART02 |||| PART03 |||| PART04

PART05 |||| PART06 |||| PART07 |||| PART08

PART01 |||| PART02 |||| PART03 |||| PART04

PART05 |||| PART06 |||| PART07 |||| PART08


Leave A Reply

Your email address will not be published.

%d bloggers like this: