เว็บโหลดหนัง HD MINI-HD SUPER-HQ Full-HD 1080p One2up VIP Master Zoom ซูม หนังใหม่ ออนไลน์ มาสเตอร์ ไทย จีน ฝรั่ง การ์ตูน

[ฝรั่ง] Mayhem (2017) ไวรัสคลั่งมรณะ [1080p] [พากย์อังกฤษ 5.1] [Soundtrack บรรยายไทย] [เสียงอังกฤษ + ซับไทย] [ONE2UP]

0

โหลดหนัง  Mayhem (2017) ไวรัสคลั่งมรณะ

เรื่องย่อ Mayhem (2017) ไวรัสคลั่งมรณะ

เล่าความโกลาหลเมื่อมีการค้นพบเชื้อไวรัสมรณะ ในตึกซึ่งเป็นที่ตั้งของสำนักงานกฎหมายแห่งหนึ่งทนาย ความหนุ่มที่ถูกเพื่อนร่วมงานใส่ร้าย และถูกไล่ออกในวันที่เชื้อไวรัสมรณะแพร่ระบาดพอดี เขาต้องติดอยู่ในอาคารกักกันเชื้อ และต้องต่อสู้เพื่อเอาตัวรอด ต่อสู้เพื่องาน และหาทางหลบหนีไปพร้อมกัน .. สไตล์การเล่าเรื่องจะคล้ายหนังอย่าง HOTFUZZ หนังเเอ็คชั่นระทึกขวัญตลกร้ายสุดเเนว

Complete name : Mayhem.2017.LIMITED.1080p.BluRay.x264.SubThai.One2loadup.com.mkv
Format : Matroska
Format version : Version 4 / Version 2
File size : 6.56 GiB
Duration : 1 h 27 min
Overall bit rate : 10.7 Mb/s
Encoded date : UTC 2018-07-06 14:30:49
Writing application : mkvmerge v23.0.0 (‘The Bride Said No’) 64-bit
Writing library : libebml v1.3.6 + libmatroska v1.4.9

Video
ID : 1
Format : AVC
Format/Info : Advanced Video Codec
Format profile : [email protected]
Format settings : CABAC / 5 Ref Frames
Format settings, CABAC : Yes
Format settings, ReFrames : 5 frames
Codec ID : V_MPEG4/ISO/AVC
Duration : 1 h 27 min
Bit rate : 9 212 kb/s
Width : 1 920 pixels
Height : 808 pixels
Display aspect ratio : 2.40:1
Frame rate mode : Constant
Frame rate : 23.976 FPS
Color space : YUV
Chroma subsampling : 4:2:0
Bit depth : 8 bits
Scan type : Progressive
Bits/(Pixel*Frame) : 0.248
Stream size : 5.63 GiB (86%)
Writing library : x264 core 152 r2851 ba24899
Encoding settings : cabac=1 / ref=5 / deblock=1:0:0 / analyse=0x3:0x133 / me=umh / subme=7 / psy=1 / psy_rd=1.00:0.00 / mixed_ref=1 / me_range=16 / chroma_me=1 / trellis=1 / 8x8dct=1 / cqm=0 / deadzone=21,11 / fast_pskip=0 / chroma_qp_offset=-2 / threads=24 / lookahead_threads=4 / sliced_threads=0 / nr=0 / decimate=1 / interlaced=0 / bluray_compat=0 / constrained_intra=0 / bframes=3 / b_pyramid=2 / b_adapt=1 / b_bias=0 / direct=1 / weightb=1 / open_gop=0 / weightp=2 / keyint=250 / keyint_min=23 / scenecut=40 / intra_refresh=0 / rc_lookahead=40 / rc=2pass / mbtree=1 / bitrate=9212 / ratetol=1.0 / qcomp=0.60 / qpmin=0 / qpmax=69 / qpstep=4 / cplxblur=20.0 / qblur=0.5 / ip_ratio=1.40 / aq=1:1.00
Language : English
Default : Yes
Forced : No

Audio
ID : 2
Format : DTS
Format/Info : Digital Theater Systems
Codec ID : A_DTS
Duration : 1 h 27 min
Bit rate mode : Constant
Bit rate : 1 509 kb/s
Channel(s) : 6 channels
Channel positions : Front: L C R, Side: L R, LFE
Sampling rate : 48.0 kHz
Frame rate : 93.750 FPS (512 SPF)
Bit depth : 24 bits
Compression mode : Lossy
Stream size : 945 MiB (14%)
Language : English
Default : Yes
Forced : No

Text #1
ID : 3
Format : VobSub
Muxing mode : zlib
Codec ID : S_VOBSUB
Codec ID/Info : Picture based subtitle format used on DVDs
Duration : 1 h 26 min
Bit rate : 12.2 kb/s
Count of elements : 1740
Stream size : 7.59 MiB (0%)
Language : English
Default : Yes
Forced : No

Text #2
ID : 4
Format : VobSub
Muxing mode : zlib
Codec ID : S_VOBSUB
Codec ID/Info : Picture based subtitle format used on DVDs
Duration : 1 h 23 min
Bit rate : 13.4 kb/s
Count of elements : 1305
Stream size : 7.99 MiB (0%)
Title : vob
Language : Thai
Default : No
Forced : No

Text #3
ID : 5
Format : UTF-8
Codec ID : S_TEXT/UTF8
Codec ID/Info : UTF-8 Plain Text
Duration : 1 h 23 min
Bit rate : 182 b/s
Count of elements : 1305
Stream size : 112 KiB (0%)
Title : srt
Language : Thai
Default : No
Forced : Yes

Menu
00:00:00.000 : en:00:00:00.000
00:10:06.189 : en:00:10:06.189
00:19:52.566 : en:00:19:52.566
00:34:24.896 : en:00:34:24.896
00:39:10.056 : en:00:39:10.056
00:56:05.279 : en:00:56:05.279
01:04:28.573 : en:01:04:28.573
01:13:04.839 : en:01:13:04.839
01:18:09.602 : en:01:18:09.602
01:23:36.428 : en:01:23:36.428

DOWNLOAD


PART01 |||| PART02 |||| PART03 |||| PART04 |||| PART05 |||| PART06 |||| PART07

PART01 |||| PART02 |||| PART03 |||| PART04 |||| PART05 |||| PART06 |||| PART07

PART01 |||| PART02 |||| PART03 |||| PART04 |||| PART05 |||| PART06 |||| PART07

PART01 |||| PART02 |||| PART03 |||| PART04 |||| PART05 |||| PART06 |||| PART07


Leave A Reply

Your email address will not be published.

%d bloggers like this: