[ฝรั่ง] I Kill Giants (2018) สาวน้อยผู้ล้มยักษ์ [1080p] [พากย์อังกฤษ 5.1] [บรรยายไทย + อังกฤษ] [เสียงอังกฤษ + ซับไทย] [OPENLOAD]

0

I Kill Giants (2018) สาวน้อยผู้ล้มยักษ์

โหลดหนัง I Kill Giants (2018) สาวน้อยผู้ล้มยักษ์ 

I Kill Giants (2017) 1h 46min | Drama, Fantasy, Thriller | 6 August 2018 (Netherlands) Summary: Barbara Thorson struggles through life by escaping into a fantasy life of magic and monsters.
Countries: Belgium, UK, USA, ChinaLanguages: English

เรื่องย่อ I Kill Giants (2018) สาวน้อยผู้ล้มยักษ์

บาบาร่า (เมดิสัน วูล์ฟ) หญิงสาวที่ใครๆ ต่างก็มองว่าเธอคือเด็กประหลาดที่ไม่มีเพื่อน แต่ทุกคนย่อมมีความลับเป็นของตัวเอง ความลับที่เธอไม่สามารถบอกใครได้ก็คือ เธอเป็นนักล่ายักษ์ เธอคือสิ่งเดียวที่สามารถยืนหยัดปกป้องเมืองของเธอให้รอดพ้นจากเหล่ายักษ์ที่กำลังบุกรุกจากโลกมืด แต่แล้วเมื่อเธอได้พบกับ มอลลี่ (โซอี้ ซัลดานา) อาจารย์ที่ปรึกษาคนใหม่ของโรงเรียน เธอจึงได้ตระหนักกับความจริงบางอย่างที่จะเปลี่ยนชีวิตของเธอไปอย่างสิ้นเชิง

Complete name : I.Kill.Giants.2017.1080p.WEB-DL.DD5.1.H264.One2loadup.com.mkv
Format : Matroska
Format version : Version 4 / Version 2
File size : 3.67 GiB
Duration : 1 h 46 min
Overall bit rate : 4 927 kb/s
Movie name : I.Kill.Giants.2017.1080p.WEB-DL.DD5.1.H264.One2loadup.com
Encoded date : UTC 2018-08-16 13:13:12
Writing application : mkvmerge v25.0.0 (‘Prog Noir’) 64-bit
Writing library : libebml v1.3.6 + libmatroska v1.4.9

Video
ID : 1
Format : AVC
Format/Info : Advanced Video Codec
Format profile : [email protected]
Format settings : CABAC / 5 Ref Frames
Format settings, CABAC : Yes
Format settings, ReFrames : 5 frames
Codec ID : V_MPEG4/ISO/AVC
Duration : 1 h 46 min
Bit rate : 4 494 kb/s
Width : 1 912 pixels
Height : 800 pixels
Display aspect ratio : 2.40:1
Frame rate mode : Constant
Frame rate : 23.976 FPS
Color space : YUV
Chroma subsampling : 4:2:0
Bit depth : 8 bits
Scan type : Progressive
Bits/(Pixel*Frame) : 0.123
Stream size : 3.34 GiB (91%)
Title : I.Kill.Giants.2017.1080p.WEB-DL.DD5.1.H264.One2loadup.com
Language : English
Default : Yes
Forced : No
Color range : Limited
Color primaries : BT.709
Transfer characteristics : BT.709
Matrix coefficients : BT.709

Audio
ID : 2
Format : AC-3
Format/Info : Audio Coding 3
Codec ID : A_AC3
Duration : 1 h 46 min
Bit rate mode : Constant
Bit rate : 384 kb/s
Channel(s) : 6 channels
Channel positions : Front: L C R, Side: L R, LFE
Sampling rate : 48.0 kHz
Frame rate : 31.250 FPS (1536 SPF)
Bit depth : 16 bits
Compression mode : Lossy
Stream size : 293 MiB (8%)
Title : I.Kill.Giants.2017.1080p.WEB-DL.DD5.1.H264.One2loadup.com
Language : English
Service kind : Complete Main
Default : Yes
Forced : No

Text #1
ID : 3
Format : VobSub
Muxing mode : zlib
Codec ID : S_VOBSUB
Codec ID/Info : Picture based subtitle format used on DVDs
Duration : 1 h 33 min
Bit rate : 6 761 b/s
Count of elements : 933
Stream size : 4.51 MiB (0%)
Language : Thai
Default : No
Forced : No

Text #2
ID : 4
Format : UTF-8
Codec ID : S_TEXT/UTF8
Codec ID/Info : UTF-8 Plain Text
Duration : 1 h 33 min
Bit rate : 95 b/s
Count of elements : 933
Stream size : 65.4 KiB (0%)
Language : Thai
Default : No
Forced : No

Text #3
ID : 5
Format : PGS
Muxing mode : zlib
Codec ID : S_HDMV/PGS
Codec ID/Info : Picture based subtitle format used on BDs/HD-DVDs
Duration : 1 h 33 min
Bit rate : 28.2 kb/s
Count of elements : 1866
Stream size : 18.8 MiB (1%)
Language : Thai
Default : Yes
Forced : No

Text #4
ID : 6
Format : VobSub
Muxing mode : zlib
Codec ID : S_VOBSUB
Codec ID/Info : Picture based subtitle format used on DVDs
Duration : 1 h 36 min
Bit rate : 6 043 b/s
Count of elements : 1055
Stream size : 4.17 MiB (0%)
Language : English
Default : No
Forced : No

Text #5
ID : 7
Format : UTF-8
Codec ID : S_TEXT/UTF8
Codec ID/Info : UTF-8 Plain Text
Duration : 1 h 36 min
Bit rate : 39 b/s
Count of elements : 1055
Stream size : 27.9 KiB (0%)
Language : English
Default : No
Forced : No

Text #6
ID : 8
Format : PGS
Muxing mode : zlib
Codec ID : S_HDMV/PGS
Codec ID/Info : Picture based subtitle format used on BDs/HD-DVDs
Duration : 1 h 36 min
Bit rate : 26.2 kb/s
Count of elements : 2110
Stream size : 18.1 MiB (0%)
Language : English
Default : No
Forced : No

Text #7
ID : 9
Format : VobSub
Muxing mode : zlib
Codec ID : S_VOBSUB
Codec ID/Info : Picture based subtitle format used on DVDs
Duration : 1 h 32 min
Bit rate : 5 506 b/s
Count of elements : 932
Stream size : 3.64 MiB (0%)
Language : English
Default : No
Forced : No

Text #8
ID : 10
Format : UTF-8
Codec ID : S_TEXT/UTF8
Codec ID/Info : UTF-8 Plain Text
Duration : 1 h 32 min
Bit rate : 36 b/s
Count of elements : 932
Stream size : 24.9 KiB (0%)
Language : English
Default : No
Forced : No

Text #9
ID : 11
Format : PGS
Muxing mode : zlib
Codec ID : S_HDMV/PGS
Codec ID/Info : Picture based subtitle format used on BDs/HD-DVDs
Duration : 1 h 32 min
Bit rate : 23.9 kb/s
Count of elements : 1864
Stream size : 15.8 MiB (0%)
Language : English
Default : No
Forced : No

Menu
00:00:00.000 : en:1
00:09:26.232 : en:2
00:19:25.623 : en:3
00:30:54.061 : en:4
00:42:20.956 : en:5
00:53:39.717 : en:6
01:04:09.722 : en:7
01:14:56.951 : en:8
01:27:10.809 : en:9
01:38:03.168 : en:10

DOWNLOAD


PART01 |||| PART02 |||| PART03 |||| PART04

PART01 |||| PART02 |||| PART03 |||| PART04

PART01 |||| PART02 |||| PART03 |||| PART04

PART01 |||| PART02 |||| PART03 |||| PART04


Leave A Reply

Your email address will not be published.