โหลดหนัง HD MINI-HD SUPER-HQ Full-HD 1080p VIP Master Zoom ซูม หนังใหม่ ออนไลน์ มาสเตอร์ ไทย จีน ฝรั่ง การ์ตูน

[ฝรั่ง] Hotel Artemis (2018) โรงแรมโคตรมหาโจร [1080p] [พากย์ไทยโรง + เสียงอังกฤษ DTS] [บรรยายอังกฤษ] [Modified] [เสียงไทยโรง + ซับอังกฤษ]

0

โหลดหนัง Hotel Artemis (2018) โรงแรมโคตรมหาโจร

เรื่องย่อ Hotel Artemis (2018) โรงแรมโคตรมหาโจร

ศูนย์การแพทย์ลับสุดไฮเทคที่สร้างขึ้นมาเพื่อดูแล ลูกค้านอกกฏหมายกระเป๋าหนักโดยเฉพาะ Hotel Artemis คือภาพยนตร์แอคชั่น-เขย่าขวัญที่มีฉากหลังเป็นนครลอสแอนเจลิส จีน โธมัส (โจดี้ ฟอสเตอร์) หรือที่ทุกคนเรียกเธอว่าคุณนางพยาบาล เธอคือผู้จัดการของ Hotel Artemis โรงพยาบาลลับสุดเอ็กซ์คลูซีฟ เปิดรักษาให้เฉพาะสมาชิกประจาเท่านั้น มันซ่อนอยู่ในโรงแรมที่ตกแต่งให้กลิ่นอายของยุค 20’s จีน แกร่ง เหี้ยม และไร้ความกลัว เธอต้องดูแลคนไข้ที่เป็นทั้ง นักฆ่า มือปืน ขโมย และชาวแก๊ง ทั้งห้องฉุกเฉินสุดล้าที่สามารถปลูกถ่ายไตใหม่ให้ผู้ ป่วยด้วยปริ้นเตอร์ 3 มิติ หรือฉีดนาโนบอทให้ผู้ป่วยเพื่อทาการรักษาจากภายใน ด้วยความช่วยเหลือจาก เอเวอร์เรสต์ ผู้ช่วยของเธอ คุณนางพยาบาลคนนี้สามารถรักษาชีวิตของอาชญากรตัวร้าย ที่สุดของโลกไว้ได้ ตั้งแต่ ไนซ์ มือสังหารยอดฝีมือชาวฝรั่งเศส อคาพูลโก้ พ่อค้าอาวุธระดับนานาชาติ และสองพี่น้องนักปล้น ไวกิกิ และโฮโนลูลู ทุกอย่างเป็นไปตามปกติจนกระทั่งคืนหนึ่งเกิดการจราจล ในแอลเอ หัวหน้าเครือค่ายก่อการร้ายตัวเอ้ โอเรียน แฟรงคลิน หรือที่ได้ฉายาว่า ไนแองการ่า ต้องเข้ารักษาอย่างเร่งด่วนหลังจากถูกลอบสังหาร การมาถึงของไนแองการ่าทาให้อาชญากรสองฝั่งในโรงพยาบา ลปะทะกัน เมื่อหนึ่งในคนไข้ ต้องการแอดมิทเข้ามาเพื่อสังหารเจ้าพ่อคนนี้โดยเฉพาะ คุณนางพยาบาลต้องตัดสินใจเพื่อปกป้องห้องฉุกเฉินและคนที่อยู่ในนั้น เมื่อที่ปลอดภัยที่สุดของอาชญากรกลายมาเป็นที่อันตรายที่สุด !!!

Complete name : Hotel.Artemis.2018.1080p.BluRay.x264.DTS.THR2.0.One2loadup.com.mkv
Format : Matroska
Format version : Version 4 / Version 2
File size : 2.88 GiB
Duration : 1 h 33 min
Overall bit rate : 4 399 kb/s
Encoded date : UTC 2018-10-01 03:25:02
Writing application : mkvmerge v25.0.0 (‘Prog Noir’) 64-bit
Writing library : libebml v1.3.6 + libmatroska v1.4.9

Video
ID : 1
Format : AVC
Format/Info : Advanced Video Codec
Format profile : [email protected]
Format settings : CABAC / 5 Ref Frames
Format settings, CABAC : Yes
Format settings, ReFrames : 5 frames
Codec ID : V_MPEG4/ISO/AVC
Duration : 1 h 33 min
Bit rate : 3 500 kb/s
Width : 1 920 pixels
Height : 800 pixels
Display aspect ratio : 2.40:1
Frame rate mode : Constant
Frame rate : 23.976 (24000/1001) FPS
Color space : YUV
Chroma subsampling : 4:2:0
Bit depth : 8 bits
Scan type : Progressive
Bits/(Pixel*Frame) : 0.095
Stream size : 2.29 GiB (80%)
Writing library : x264 core 148 r2708 86b7198
Encoding settings : cabac=1 / ref=5 / deblock=1:-1:-1 / analyse=0x3:0x113 / me=umh / subme=9 / psy=1 / psy_rd=1.00:0.00 / mixed_ref=1 / me_range=16 / chroma_me=1 / trellis=1 / 8x8dct=1 / cqm=0 / deadzone=21,11 / fast_pskip=0 / chroma_qp_offset=-2 / threads=12 / lookahead_threads=1 / sliced_threads=0 / nr=0 / decimate=1 / interlaced=0 / bluray_compat=0 / constrained_intra=0 / bframes=3 / b_pyramid=2 / b_adapt=2 / b_bias=0 / direct=1 / weightb=1 / open_gop=0 / weightp=2 / keyint=240 / keyint_min=24 / scenecut=40 / intra_refresh=0 / rc_lookahead=40 / rc=2pass / mbtree=1 / bitrate=3500 / ratetol=1.0 / qcomp=0.60 / qpmin=0 / qpmax=69 / qpstep=4 / cplxblur=20.0 / qblur=0.5 / vbv_maxrate=62500 / vbv_bufsize=78125 / nal_hrd=none / filler=0 / ip_ratio=1.40 / aq=1:1.00
Default : Yes
Forced : No
Color range : Limited
Color primaries : BT.709
Transfer characteristics : BT.709
Matrix coefficients : BT.709

Audio #1
ID : 2
Format : AAC
Format/Info : Advanced Audio Codec
Format profile : LC
Codec ID : A_AAC-2
Duration : 1 h 33 min
Bit rate : 128 kb/s
Channel(s) : 2 channels
Channel positions : Front: L R
Sampling rate : 44.1 kHz
Frame rate : 43.066 FPS (1024 SPF)
Compression mode : Lossy
Stream size : 85.8 MiB (3%)
Title : Thairong 2CH
Language : Thai
Default : Yes
Forced : Yes

Audio #2
ID : 3
Format : DTS
Format/Info : Digital Theater Systems
Codec ID : A_DTS
Duration : 1 h 33 min
Bit rate mode : Constant
Bit rate : 768 kb/s
Channel(s) : 6 channels
Channel positions : Front: L C R, Side: L R, LFE
Sampling rate : 48.0 kHz
Frame rate : 93.750 FPS (512 SPF)
Bit depth : 24 bits
Compression mode : Lossy
Stream size : 515 MiB (17%)
Title : DTS 6CH
Language : English
Default : No
Forced : No

Text #1
ID : 4
Format : ASS
Codec ID : S_TEXT/ASS
Codec ID/Info : Advanced Sub Station Alpha
Duration : 1 h 25 min
Bit rate : 120 b/s
Count of elements : 1396
Compression mode : Lossless
Stream size : 75.1 KiB (0%)
Language : English
Default : No
Forced : No

Text #2
ID : 5
Format : ASS
Codec ID : S_TEXT/ASS
Codec ID/Info : Advanced Sub Station Alpha
Duration : 1 h 33 min
Bit rate : 133 b/s
Count of elements : 1678
Compression mode : Lossless
Stream size : 91.4 KiB (0%)
Language : English
Default : No
Forced : No

Menu
00:00:00.000 : :00:00:00.000
00:05:09.684 : :00:05:09.684
00:13:06.077 : :00:13:06.077
00:17:40.309 : :00:17:40.309
00:22:09.620 : :00:22:09.620
00:28:00.095 : :00:28:00.095
00:33:35.055 : :00:33:35.055
00:38:58.503 : :00:38:58.503
00:42:21.873 : :00:42:21.873
00:46:53.019 : :00:46:53.019
00:52:45.871 : :00:52:45.871
00:56:43.567 : :00:56:43.567
01:00:13.652 : :01:00:13.652
01:04:05.258 : :01:04:05.258
01:08:45.288 : :01:08:45.288
01:13:52.720 : :01:13:52.720
01:18:17.693 : :01:18:17.693
01:24:49.751 : :01:24:49.751

DOWNLOAD


PART01 |||| PART02 |||| PART03

PART01 |||| PART02 |||| PART03

PART01 |||| PART02 |||| PART03

PART01 |||| PART02 |||| PART03


Leave A Reply

Your email address will not be published.

%d bloggers like this: