[ฝรั่ง] Gemini Man (2019) เจมิไน แมน [1080p] [พากย์ไทยโรง 2.0 + เสียงอังกฤษ 2.0] [บรรยายเกาหลีฝัง] [เสียงไทยโรง + ซับเกาหลีฝัง] [PANDAFILE]

0

Gemini Man (2019)

โหลดหนัง Gemini Man (2019) เจมิไน แมน

Gemini Man (2019) 1h 57min | Action, Drama, Sci-Fi | 3 October 2019 (Germany) Summary: An over-the-hill hitman faces off against a younger clone of himself.
Countries: USA, ChinaLanguages: English, French

เรื่องย่อ Gemini Man (2019) เจมิไน แมน

เรื่องราวของ เฮนรี่ โบรแกน (วิล สมิธ) นักฆ่าฝีมือฉกาจซึ่งกลายเป็นเป้าหมายและถูกไล่ล่าโดย เจ้าหน้าที่ปฏิบัติการลับที่สามารถคาดการณ์การเคลื่อนไหวของเขาได้ทุกฝีก้าว!!!

Complete name : Gemini.Man.2019.1080p.KORSUB.HDRip.x264.AC3.THR2.0.One2loadup.com.mkv
Format : Matroska
Format version : Version 4
File size : 3.95 GiB
Duration : 1 h 47 min
Overall bit rate : 5 283 kb/s
Movie name : Gemini.Man.2019.1080p.KORSUB.HDRip.x264.AC3.THR2.0.One2loadup.com
Encoded date : UTC 2019-11-16 09:54:58
Writing application : mkvmerge v25.0.0 (‘Prog Noir’) 64-bit
Writing library : libebml v1.3.6 + libmatroska v1.4.9

Video
ID : 1
Format : AVC
Format/Info : Advanced Video Codec
Format profile : [email protected]
Format settings : CABAC / 4 Ref Frames
Format settings, CABAC : Yes
Format settings, ReFrames : 4 frames
Codec ID : V_MPEG4/ISO/AVC
Duration : 1 h 46 min
Bit rate : 4 800 kb/s
Width : 1 920 pixels
Height : 1 040 pixels
Display aspect ratio : 1.85:1
Frame rate mode : Constant
Frame rate : 30.000 FPS
Color space : YUV
Chroma subsampling : 4:2:0
Bit depth : 8 bits
Scan type : Progressive
Bits/(Pixel*Frame) : 0.080
Stream size : 3.61 GiB (91%)
Title : Gemini.Man.2019.1080p.KORSUB.HDRip.x264.AC3.THR2.0.One2loadup.com
Writing library : x264 core 148 r2748 97eaef2
Encoding settings : cabac=1 / ref=4 / deblock=1:0:0 / analyse=0x3:0x113 / me=umh / subme=9 / psy=1 / psy_rd=1.00:0.00 / mixed_ref=1 / me_range=16 / chroma_me=1 / trellis=2 / 8x8dct=1 / cqm=0 / deadzone=21,11 / fast_pskip=1 / chroma_qp_offset=-2 / threads=72 / lookahead_threads=6 / sliced_threads=0 / nr=0 / decimate=1 / interlaced=0 / bluray_compat=0 / constrained_intra=0 / bframes=3 / b_pyramid=2 / b_adapt=2 / b_bias=0 / direct=3 / weightb=1 / open_gop=0 / weightp=2 / keyint=250 / keyint_min=25 / scenecut=40 / intra_refresh=0 / rc_lookahead=50 / rc=abr / mbtree=1 / bitrate=4800 / ratetol=1.0 / qcomp=0.60 / qpmin=0 / qpmax=69 / qpstep=4 / ip_ratio=1.40 / aq=1:1.00
Default : Yes
Forced : No

Audio #1
ID : 2
Format : AC-3
Format/Info : Audio Coding 3
Commercial name : Dolby Digital
Codec ID : A_AC3
Duration : 1 h 47 min
Bit rate mode : Constant
Bit rate : 192 kb/s
Channel(s) : 2 channels
Channel layout : L R
Sampling rate : 48.0 kHz
Frame rate : 31.250 FPS (1536 SPF)
Bit depth : 16 bits
Compression mode : Lossy
Stream size : 147 MiB (4%)
Title : Thai Rong 2.0 @192 Kbps
Language : Thai
Service kind : Complete Main
Default : Yes
Forced : No

Audio #2
ID : 3
Format : AAC LC
Format/Info : Advanced Audio Codec Low Complexity
Codec ID : A_AAC-2
Duration : 1 h 47 min
Bit rate : 256 kb/s
Channel(s) : 2 channels
Channel layout : L R
Sampling rate : 48.0 kHz
Frame rate : 46.875 FPS (1024 SPF)
Compression mode : Lossy
Delay relative to video : 22 ms
Stream size : 196 MiB (5%)
Title : English 2.0 @256 Kbps
Language : English
Default : No
Forced : No

DOWNLOAD


PART01 |||| PART02 |||| PART03 |||| PART04 |||| PART05

PART01 |||| PART02 |||| PART03 |||| PART04 |||| PART05

PART01 |||| PART02 |||| PART03 |||| PART04 |||| PART05

PART01 |||| PART02 |||| PART03 |||| PART04 |||| PART05


Leave A Reply

Your email address will not be published.

%d bloggers like this: