โหลดหนัง HD MINI-HD SUPER-HQ Full-HD 1080p VIP Master Zoom ซูม หนังใหม่ ออนไลน์ มาสเตอร์ ไทย จีน ฝรั่ง การ์ตูน

[ฝรั่ง] Final Score (2018) ยุทธการดับแผน ผ่าแมตช์เส้นตาย [1080p] [พากย์ไทยโรง 2.0] [ไม่มีบรรยาย] [เสียงไทยโรง]

0

โหลดหนัง  Final Score (2018) ยุทธการดับแผน ผ่าแมตช์เส้นตาย

เรื่องย่อ Final Score (2018) ยุทธการดับแผน ผ่าแมตช์เส้นตาย

90 นาที 35,000 ชีวิต นี่คือแมตช์ฟุตบอลที่ทั้งโลกจะต้องจดจำ เมื่อสนามฟุตบอลเวสต์แฮมถูกยึดในนัดปิดบ้าน แฟนบอลทั้งหมดถูกจับเป็นตัวประกัน ในสถานการณ์ที่สิ้นหวัง มีเพียงชายคนเดียวที่จะหยุดยั้งมันได้ พบกับภารกิจสุดระห่ำของหนึ่งอดีตทหารฝีมือฉกาจ ไมเคิล น็อกซ์ (เดฟ บาทิสต้า) กับการหยุดวินาศกรรมกลางสนามบอลที่มีเวลาเพียง 90 นาที เพื่อช่วยเหลือลูกสาวของเขา ในสนามฟุตบอลที่ถูกบุกยึดโดยกลุ่มอาชญากรติดอาวุธครบมือ !!!

Complete name : Final.Score.2018.1080p.THR.One2loadup.com.mp4
Format : MPEG-4
Format profile : Base Media / Version 2
Codec ID : mp42 (isom/mp42)
File size : 2.26 GiB
Duration : 1 h 44 min
Overall bit rate mode : Variable
Overall bit rate : 3 095 kb/s
Encoded date : UTC 2018-09-28 20:53:16
Tagged date : UTC 2018-09-28 20:53:16
gsst : 0
gstd : 6283411

Video
ID : 1
Format : AVC
Format/Info : Advanced Video Codec
Format profile : [email protected]
Format settings : CABAC / 1 Ref Frames
Format settings, CABAC : Yes
Format settings, ReFrames : 1 frame
Format settings, GOP : M=1, N=48
Codec ID : avc1
Codec ID/Info : Advanced Video Coding
Duration : 1 h 44 min
Bit rate : 2 965 kb/s
Maximum bit rate : 9 969 kb/s
Width : 1 920 pixels
Height : 1 080 pixels
Display aspect ratio : 16:9
Frame rate mode : Constant
Frame rate : 23.976 (24000/1001) FPS
Color space : YUV
Chroma subsampling : 4:2:0
Bit depth : 8 bits
Scan type : Progressive
Bits/(Pixel*Frame) : 0.060
Stream size : 2.17 GiB (96%)
Tagged date : UTC 2018-09-28 20:56:08
Color range : Limited
Color primaries : BT.709
Transfer characteristics : BT.709
Matrix coefficients : BT.709

Audio
ID : 2
Format : AAC
Format/Info : Advanced Audio Codec
Format profile : LC
Codec ID : mp4a-40-2
Duration : 1 h 44 min
Bit rate mode : Variable
Bit rate : 128 kb/s
Maximum bit rate : 135 kb/s
Channel(s) : 2 channels
Channel positions : Front: L R
Sampling rate : 44.1 kHz
Frame rate : 43.066 FPS (1024 SPF)
Compression mode : Lossy
Stream size : 95.9 MiB (4%)
Encoded date : UTC 2018-09-28 20:55:07
Tagged date : UTC 2018-09-28 20:56:08

DOWNLOAD


PART01 |||| PART02 |||| PART03

PART01 |||| PART02 |||| PART03

PART01 |||| PART02 |||| PART03

PART01 |||| PART02 |||| PART03


Leave A Reply

Your email address will not be published.

%d bloggers like this: