เว็บโหลดหนัง HD MINI-HD SUPER-HQ Full-HD 1080p One2up VIP Master Zoom ซูม หนังใหม่ ออนไลน์ มาสเตอร์ ไทย จีน ฝรั่ง การ์ตูน

[ฝรั่ง] Deadpool 2 (2018) เดดพูล 2 [1080p] [พากย์ไทยโรง + เสียงอังกฤษ 5.1] [บรรยายอังกฤษ] [เสียงไทยโรง + ซับ Eng] [FILECLOUD]

0

โหลดหนัง  Deadpool 2 (2018) เดดพูล 2 

เรื่องย่อ Deadpool 2 (2018) เดดพูล 2

หลังรอดตายอย่างหวุดหวิดจากการถูกวัวขวิด เวด วิลสัน เชฟร้านคาเฟ่หน้าเน่า ยังคงดิ้นรนทำความฝันที่อยากจะเป็นบาร์เทนเดอร์สุดฮ็ อตของร้านเมย์เบอร์รี่ให้เป็นจริง ไปพร้อม ๆ กับการทำใจยอมรับอาการสูญเสียการรับรู้รสของเขาเพื่อตามหาความซาบซ่านในชีวิตกลับคืนมา รวมทั้งตัวเก็บประจุฟลักซ์ที่ใช้เดินทางข้ามเวลา เวดต้องต่อสู้กับเหล่านินจา ยากูซ่า และฝูงหมาหื่น ขณะที่เขาเดินทางไปทั่วโลกเพื่อค้นหาความสำคัญของครอบครัว มิตรภาพ และรสชาติใหม่ของการผจญภัย และเพื่อได้รับถ้วยกาแฟ “สุดยอดนักรักของโลก” ที่เขาปรารถนา

Complete name : Deadpool.2.2018.1080p.WEB-DL.DD5.1.H264.One2loadup.com.mkv
Format : Matroska
Format version : Version 4 / Version 2
File size : 4.24 GiB
Duration : 1 h 59 min
Overall bit rate : 5 086 kb/s
Movie name : Deadpool.2.2018.1080p.WEB-DL.DD5.1.H264.One2loadup.com
Encoded date : UTC 2018-08-07 08:33:44
Writing application : mkvmerge v22.0.0 (‘At The End Of The World’) 64-bit
Writing library : libebml v1.3.5 + libmatroska v1.4.8
Cover : Yes
Attachments : small_cover.jpg / small_cover_land.jpg / cover.jpg / cover_land.jpg

Video
ID : 1
Format : AVC
Format/Info : Advanced Video Codec
Format profile : [email protected]
Format settings : CABAC / 5 Ref Frames
Format settings, CABAC : Yes
Format settings, ReFrames : 5 frames
Codec ID : V_MPEG4/ISO/AVC
Duration : 1 h 59 min
Bit rate : 4 508 kb/s
Width : 1 920 pixels
Height : 804 pixels
Display aspect ratio : 2.40:1
Frame rate mode : Constant
Frame rate : 23.976 (24000/1001) FPS
Color space : YUV
Chroma subsampling : 4:2:0
Bit depth : 8 bits
Scan type : Progressive
Bits/(Pixel*Frame) : 0.122
Stream size : 3.76 GiB (89%)
Title : Deadpool.2.2018.1080p.WEB-DL.DD5.1.H264.One2loadup.com
Language : English
Default : Yes
Forced : No
Color range : Limited
Color primaries : BT.709
Transfer characteristics : BT.709
Matrix coefficients : BT.709

Audio #1
ID : 2
Format : AC-3
Format/Info : Audio Coding 3
Codec ID : A_AC3
Duration : 1 h 59 min
Bit rate mode : Constant
Bit rate : 384 kb/s
Channel(s) : 6 channels
Channel positions : Front: L C R, Side: L R, LFE
Sampling rate : 48.0 kHz
Frame rate : 31.250 FPS (1536 SPF)
Bit depth : 16 bits
Compression mode : Lossy
Delay relative to video : -43 ms
Stream size : 328 MiB (8%)
Title : Deadpool.2.2018.1080p.WEB-DL.DD5.1.H264.One2loadup.com
Language : English
Service kind : Complete Main
Default : Yes
Forced : No

Audio #2
ID : 3
Format : AAC
Format/Info : Advanced Audio Codec
Format profile : LC
Codec ID : A_AAC-2
Duration : 1 h 58 min
Bit rate : 192 kb/s
Channel(s) : 2 channels
Channel positions : Front: L R
Sampling rate : 48.0 kHz
Frame rate : 46.875 FPS (1024 SPF)
Compression mode : Lossy
Delay relative to video : -32 ms
Stream size : 163 MiB (4%)
Language : Thai
Default : No
Forced : No

Text
ID : 4
Format : UTF-8
Codec ID : S_TEXT/UTF8
Codec ID/Info : UTF-8 Plain Text
Duration : 1 h 53 min
Bit rate : 64 b/s
Count of elements : 1834
Stream size : 53.3 KiB (0%)
Language : English
Default : Yes
Forced : No

Menu
00:00:00.000 : en:Chapter 01
00:02:30.692 : en:Chapter 02
00:05:52.435 : en:Chapter 03
00:08:10.656 : en:Chapter 04
00:11:29.563 : en:Chapter 05
00:14:51.097 : en:Chapter 06
00:16:19.977 : en:Chapter 07
00:20:23.512 : en:Chapter 08
00:21:59.524 : en:Chapter 09
00:26:33.464 : en:Chapter 10
00:31:39.770 : en:Chapter 11
00:35:15.944 : en:Chapter 12
00:38:59.375 : en:Chapter 13
00:41:48.919 : en:Chapter 14
00:46:15.226 : en:Chapter 15
00:50:29.021 : en:Chapter 16
00:53:55.060 : en:Chapter 17
00:56:26.419 : en:Chapter 18
00:58:24.703 : en:Chapter 19
01:00:25.031 : en:Chapter 20
01:03:58.285 : en:Chapter 21
01:07:56.481 : en:Chapter 22
01:09:37.456 : en:Chapter 23
01:13:26.810 : en:Chapter 24
01:17:48.112 : en:Chapter 25
01:20:55.007 : en:Chapter 26
01:24:04.905 : en:Chapter 27
01:26:20.332 : en:Chapter 28
01:29:27.894 : en:Chapter 29
01:31:40.276 : en:Chapter 30
01:33:25.339 : en:Chapter 31
01:35:28.295 : en:Chapter 32
01:38:53.541 : en:Chapter 33
01:42:15.159 : en:Chapter 34
01:45:18.008 : en:Chapter 35
01:48:59.562 : en:Chapter 36

DOWNLOAD


PART01 |||| PART02 |||| PART03 |||| PART04 |||| PART05

PART01 |||| PART02 |||| PART03 |||| PART04 |||| PART05

PART01 |||| PART02 |||| PART03 |||| PART04 |||| PART05

PART01 |||| PART02 |||| PART03 |||| PART04 |||| PART05


Leave A Reply

Your email address will not be published.

%d bloggers like this: