[ฝรั่ง] Bohemian Rhapsody (2018) โบฮีเมียน แรปโซดี [1080p] [พากย์ไทย มาสเตอร์ + เสียงอังกฤษ 5.1] [บรรยายไทย + อังกฤษ] [เสียงไทย + ซับไทย] [OPENLOAD]

0

Bohemian Rhapsody (2018) โบฮีเมียน แรปโซดี

โหลดหนัง Bohemian Rhapsody (2018) โบฮีเมียน แรปโซดี

เรื่องย่อ Bohemian Rhapsody (2018) โบฮีเมียน แรปโซดี

สำหรับวง Queen วงร็อคที่ยิ่งใหญ่ตลอดกาล ที่ครั้งนี้พวกเขากลับมาในภาพยนตร์เรื่อง Bohemian Rhapsody ซึ่งล่าสุดได้ส่งตัวอย่างใหม่ออกมาให้แฟน ๆ
ได้ชมกันอีกแล้ว พร้อมเผยเรื่องราวของร็อคเกอร์ในตำนานอย่าง เฟร็ดดี้ เมอร์คูรี่ หนึ่งในสมาชิกวง Queen ที่ไม่ใช่แค่หน้าตาเท่านั้นที่ทำให้เขากลายเป็นศิลปิ นขวัญใจแฟน ๆ แต่เสียงอันทรงพลังและการแต่งกายสีสันบาดตา มันก็ทำให้เขากลายเป็นบุคคลที่น่าจดจำไม่แพ้กัน Bohemian Rhapsody ได้หยิบเรื่องราวชีวประวัติที่น่าสนใจของ เฟร็ดดี้ เมอร์คูรี่ มาถ่ายทอดบนจอยักษ์ให้แฟน ๆ ได้ชมกันโดยฝีมือผู้กำกับ เด็กซ์เตอร์ เฟลทเชอร์ ผู้อยู่เบื้องหลัง Eddie the Eagle (2016) ที่เขาได้เข้ามาแทนที่ ไบรอัน ซิงเกอร์ซึ่งโดนปลดจากโปรเจ็คนี้จากการหายไปจากกองถ่ายหลายต่ อหลายครั้งโดยไม่แจ้งเหตุผล พร้อมได้นักแสดงหนุ่ม รามี มาเลค (Rami Malek) ที่โด่งดังจากซีรีส์ Mr. Robot ที่ครั้งนี้เขาได้เปลี่ยนลุคโดยการรับบทเป็นตัวละครสำคัญอย่าง เฟร็ดดี้ เมอร์คูรี่ อีกด้วย!!!

Complete name : Bohemian.Rhapsody.2018.1080p.WEB-DL.AC3.x264.One2loadup.com.mkv
Format : Matroska
Format version : Version 4
File size : 5.16 GiB
Duration : 2 h 14 min
Overall bit rate : 5 473 kb/s
Movie name : Bohemian.Rhapsody.2018.1080p.WEB-DL.AC3.x264.One2loadup.com
Encoded date : UTC 2010-02-22 21:41:31
Writing application : mkvmerge v5.9.0 (‘On The Loose’) built on Dec 9 2012 15:37:01
Writing library : libebml v1.3.0 + libmatroska v1.4.0

Video
ID : 1
Format : AVC
Format/Info : Advanced Video Codec
Format profile : [email protected]
Format settings : CABAC / 5 Ref Frames
Format settings, CABAC : Yes
Format settings, ReFrames : 5 frames
Codec ID : V_MPEG4/ISO/AVC
Duration : 2 h 14 min
Bit rate : 4 597 kb/s
Width : 1 920 pixels
Height : 802 pixels
Display aspect ratio : 2.40:1
Frame rate mode : Constant
Frame rate : 24.000 FPS
Color space : YUV
Chroma subsampling : 4:2:0
Bit depth : 8 bits
Scan type : Progressive
Bits/(Pixel*Frame) : 0.124
Stream size : 4.33 GiB (84%)
Title : Bohemian.Rhapsody.2018.1080p.WEB-DL.AC3.x264.One2loadup.com
Language : English
Default : Yes
Forced : No
Color range : Limited
Color primaries : BT.709
Transfer characteristics : BT.709
Matrix coefficients : BT.709

Audio #1
ID : 2
Format : AC-3
Format/Info : Audio Coding 3
Commercial name : Dolby Digital
Codec ID : A_AC3
Duration : 2 h 14 min
Bit rate mode : Constant
Bit rate : 384 kb/s
Channel(s) : 2 channels
Channel layout : L R
Sampling rate : 48.0 kHz
Frame rate : 31.250 FPS (1536 SPF)
Bit depth : 16 bits
Compression mode : Lossy
Stream size : 370 MiB (7%)
Title : Thai Master
Language : Thai
Service kind : Complete Main
Default : Yes
Forced : Yes

Audio #2
ID : 3
Format : AC-3
Format/Info : Audio Coding 3
Commercial name : Dolby Digital
Codec ID : A_AC3
Duration : 2 h 14 min
Bit rate mode : Constant
Bit rate : 384 kb/s
Channel(s) : 6 channels
Channel layout : L R C LFE Ls Rs
Sampling rate : 48.0 kHz
Frame rate : 31.250 FPS (1536 SPF)
Bit depth : 16 bits
Compression mode : Lossy
Stream size : 370 MiB (7%)
Title : English AC3 5.1
Language : English
Service kind : Complete Main
Default : No
Forced : No

Text #1
ID : 4
Format : VobSub
Codec ID : S_VOBSUB
Codec ID/Info : Picture based subtitle format used on DVDs
Title : Thai 480p
Language : Thai
Default : No
Forced : No

Text #2
ID : 5
Format : VobSub
Codec ID : S_VOBSUB
Codec ID/Info : Picture based subtitle format used on DVDs
Title : Thai 720p
Language : Thai
Default : No
Forced : No

Text #3
ID : 6
Format : VobSub
Codec ID : S_VOBSUB
Codec ID/Info : Picture based subtitle format used on DVDs
Title : Thai 1080p Master
Language : Thai
Default : Yes
Forced : Yes

Text #4
ID : 7
Format : VobSub
Codec ID : S_VOBSUB
Codec ID/Info : Picture based subtitle format used on DVDs
Title : Thai 1080p Yellow
Language : Thai
Default : No
Forced : No

Text #5
ID : 8
Format : VobSub
Codec ID : S_VOBSUB
Codec ID/Info : Picture based subtitle format used on DVDs
Title : Thai 1080p Out
Language : Thai
Default : No
Forced : No

Text #6
ID : 9
Format : VobSub
Codec ID : S_VOBSUB
Codec ID/Info : Picture based subtitle format used on DVDs
Title : Thai 1080p Out [BIG]
Language : Thai
Default : No
Forced : No

Text #7
ID : 10
Format : PGS
Codec ID : S_HDMV/PGS
Codec ID/Info : Picture based subtitle format used on BDs/HD-DVDs
Title : Thai PGS
Language : Thai
Default : No
Forced : No

Text #8
ID : 11
Format : PGS
Codec ID : S_HDMV/PGS
Codec ID/Info : Picture based subtitle format used on BDs/HD-DVDs
Title : Thai PGS Yellow
Language : Thai
Default : No
Forced : No

Text #9
ID : 12
Format : PGS
Codec ID : S_HDMV/PGS
Codec ID/Info : Picture based subtitle format used on BDs/HD-DVDs
Title : Thai PGS Out
Language : Thai
Default : No
Forced : No

Text #10
ID : 13
Format : PGS
Codec ID : S_HDMV/PGS
Codec ID/Info : Picture based subtitle format used on BDs/HD-DVDs
Title : English
Language : English
Default : No
Forced : No

DOWNLOAD


PART01 |||| PART02 |||| PART03 |||| PART04 |||| PART05 |||| PART06

PART01 |||| PART02 |||| PART03 |||| PART04 |||| PART05 |||| PART06

PART01 |||| PART02 |||| PART03 |||| PART04 |||| PART05 |||| PART06

PART01 |||| PART02 |||| PART03 |||| PART04 |||| PART05 |||| PART06


Leave A Reply

Your email address will not be published.

%d bloggers like this: