[ฝรั่ง] Bird Box (2018) มอง อย่าให้เห็น [1080p] [พากย์อังกฤษ DTS] [Netflix] [Soundtrack บรรยายไทย] [เสียงอังกฤษ + ซับไทย] [OPENLOAD]

0

Bird Box (2018) มอง อย่าให้เห็น

โหลดหนัง Bird Box (2018) มอง อย่าให้เห็น

Bird Box (2018) 2h 4min | Drama, Horror, Sci-Fi | 21 December 2018 (Netherlands) Summary: Five years after an ominous unseen presence drives most of society to suicide, a mother and her two children make a desperate bid to reach safety.
Countries: USALanguages: English

เรื่องย่อ Bird Box (2018) มอง อย่าให้เห็น

กลุ่มนักศึกษาปริญญาเอกที่กำลังทำดุษฎีนิพนธ์เกี่ยวกับเรื่องการศึกษาโรคอัลไซเมอร์ในผู้สูงอายุ จนมาพบเข้ากับกลุ่มตัวอย่าง-ครอบครัวของหญิงชรา คุณยาย Deborah Logan (รับบทโดย Jill Larson) ที่มีปัญหาเกี่ยวกับอาการผิดปกติทางจิตและทางกายด้วย โรคอัลไซเมอร์อย่างรุนแรงนานหลายปี เล่าลือกันว่าทุกค่ำคืนตัวของ Deborah Logan จะมีพฤติกรรมแปรเปลี่ยนไปจากปกติแบบสุดขั้ว จากกลางวันเธอจะเป็นเพียงหญิงชราวัยไม้ใกล้ฝั่งที่อย ู่ในภาพซึมเศร้า เคลื่อนไหวเชื่องช้า…จวบจนตกกลางคืนเธอจึงเริ่มมีเรี่ยวแรง ขยับแขนขนราวคนบ้าคลั่ง มีพละกำลังวิ่งได้รวดเร็วยิ่งกว่าคนหนุ่มสาว (อาการคล้ายคนถูกผีเข้า) จนบางครั้งผู้คนใกล้ๆบ้านหลังนี้เริ่มกลัว หวาดระแวงหญิงชรา และสับสนกับพฤติกรรมดังกล่าวว่ามันเกิดจากสาเหตุอะไร กันแน่…มันเกิดจากการกระทำของมนุษย์ต่างดาว-สภาพร่างกายที่แปรเปลี่ยนไปตามอายุ-สิ่งลี้ลับภูตผีปีศาจร้าย หรืออะไรกันแน่ ( ? ) ประจวบกับกลุ่มนักศึกษาจากต่างถิ่นเริ่มสนใจเคสตัวอย่างนี้เข้าอย่างจังเบอร์ เพราะมันเป็นพฤติกรรมที่แปลกแยกมากๆ จึงพยายามติดต่อไปยัง Sarah Logan (รับบทโดย Anne Ramsay) เครือญาติใกล้ชิดของหญิงชราที่คอยดูแลปรนนิบัติรับใช ้คุณยาย Deborah Logan ภายในบ้านหลังนั้นเอง เพื่อขออนุญาตติดตั้งกล้องวงจรปิดหลายสิบตัว ทั้งภายในและภายนอกตัวบ้าน สำหรับเฝ้าอาการและสังเกตพฤติกรรมของหญิงชราตลอด 24 ชั่วโมง !!!

Complete name : Bird.Box.2018.ThPGS.En.Netflix.1080p.x264.AC3.One2loadup.com.mkv
Format : Matroska
Format version : Version 4
File size : 4.71 GiB
Duration : 2 h 3 min
Overall bit rate mode : Variable
Overall bit rate : 5 447 kb/s
Movie name : Bird.Box.2018.ThPGS.En.Netflix.1080p.x264.AC3.One2loadup.com
Encoded date : UTC 2018-12-21 18:00:45
Writing application : mkvmerge v21.0.0 (‘Tardigrades Will Inherit The Earth’) 64-bit
Writing library : libebml v1.3.5 + libmatroska v1.4.8
Cover : Yes
Attachments : small_cover_land.jpg / cover.jpg / cover_land.jpg / small_cover.jpg

Video
ID : 1
Format : AVC
Format/Info : Advanced Video Codec
Format profile : [email protected]
Format settings : CABAC / 3 Ref Frames
Format settings, CABAC : Yes
Format settings, ReFrames : 3 frames
Codec ID : V_MPEG4/ISO/AVC
Duration : 2 h 3 min
Bit rate mode : Variable
Bit rate : 4 870 kb/s
Maximum bit rate : 7 305 kb/s
Width : 1 920 pixels
Height : 1 080 pixels
Display aspect ratio : 16:9
Frame rate mode : Constant
Frame rate : 24.000 FPS
Color space : YUV
Chroma subsampling : 4:2:0
Bit depth : 8 bits
Scan type : Progressive
Bits/(Pixel*Frame) : 0.098
Stream size : 4.13 GiB (88%)
Writing library : x264 core 148 r2715 7e75228
Encoding settings : cabac=1 / ref=3 / deblock=1:0:0 / analyse=0x1:0x111 / me=umh / subme=10 / psy=1 / psy_rd=1.00:0.00 / mixed_ref=1 / me_range=24 / chroma_me=1 / trellis=2 / 8x8dct=0 / cqm=0 / deadzone=21,11 / fast_pskip=1 / chroma_qp_offset=-2 / threads=8 / lookahead_threads=1 / sliced_threads=0 / nr=0 / decimate=1 / interlaced=0 / bluray_compat=0 / stitchable=1 / constrained_intra=0 / bframes=2 / b_pyramid=0 / b_adapt=2 / b_bias=0 / direct=3 / weightb=1 / open_gop=0 / weightp=2 / keyint=48 / keyint_min=25 / scenecut=0 / intra_refresh=0 / rc_lookahead=48 / rc=2pass / mbtree=1 / bitrate=4870 / ratetol=1.0 / qcomp=0.50 / qpmin=6 / qpmax=51 / qpstep=4 / cplxblur=20.0 / qblur=0.5 / vbv_maxrate=7305 / vbv_bufsize=9740 / nal_hrd=vbr / filler=0 / ip_ratio=1.40 / aq=1:1.00
Language : English
Default : Yes
Forced : No

Audio
ID : 2
Format : AC-3
Format/Info : Audio Coding 3
Commercial name : Dolby Digital
Codec ID : A_AC3
Duration : 2 h 3 min
Bit rate mode : Constant
Bit rate : 640 kb/s
Channel(s) : 6 channels
Channel layout : L R C LFE Ls Rs
Sampling rate : 48.0 kHz
Frame rate : 31.250 FPS (1536 SPF)
Bit depth : 16 bits
Compression mode : Lossy
Stream size : 567 MiB (12%)
Language : English
Service kind : Complete Main
Default : Yes
Forced : No

Text #1
ID : 3
Format : UTF-8
Codec ID : S_TEXT/UTF8
Codec ID/Info : UTF-8 Plain Text
Duration : 1 h 59 min
Bit rate : 61 b/s
Count of elements : 1727
Stream size : 53.4 KiB (0%)
Language : English
Default : No
Forced : No

Text #2
ID : 4
Format : PGS
Muxing mode : zlib
Codec ID : S_HDMV/PGS
Codec ID/Info : Picture based subtitle format used on BDs/HD-DVDs
Duration : 2 h 3 min
Bit rate : 44.3 kb/s
Count of elements : 2884
Stream size : 39.1 MiB (1%)
Title : th_pgs
Language : Thai
Default : Yes
Forced : No

DOWNLOAD


PART01 |||| PART02 |||| PART03 |||| PART04 |||| PART05

PART01 |||| PART02 |||| PART03 |||| PART04 |||| PART05

PART01 |||| PART02 |||| PART03 |||| PART04 |||| PART05

PART01 |||| PART02 |||| PART03 |||| PART04 |||| PART05


Leave A Reply

Your email address will not be published.

%d bloggers like this: