โหลดหนัง HD MINI-HD SUPER-HQ Full-HD 1080p VIP Master Zoom ซูม หนังใหม่ ออนไลน์ มาสเตอร์ ไทย จีน ฝรั่ง การ์ตูน

[ฝรั่ง] Aquaman (2018) อควาแมนต์ เจ้าสมุทร [1080p] [พากย์ไทยโรง 2.0 + เสียงอังกฤษ 2.0] [บรรยายเกาหลีฝัง] [เสียงไทยโรง] [OPENLOAD]

โหลดหนัง Aquaman (2018) อควาแมนต์ เจ้าสมุทร 

เรื่องย่อ Aquaman (2018) อควาแมนต์ เจ้าสมุทร

จากวอร์เนอร์ บราเธอร์ส พิคเจอร์ส และ ผู้กำกับ เจมส์ วาน สู่ภาพยนตร์แนวแอคชั่นผจญภัยครั้งใหญ่ กับภาพอันชวนตื่นตะลึงจนแทบหยุดหายใจ ในโลกแห่งเจ็ดคาบสมุทร “Aquaman” นำแสดงโดย เจสัน โมมัว ภาพยนตร์เรื่องนี้จะนำคุณไปพบกับที่มาของลูกครึ่งมนุ ษย์-ครึ่งชาวแอตแลนติส อาเธอร์ เคอร์รี่ และพาไปชมการผจญภัยครั้งสำคัญของชีวิต ที่นอกจากจะบังคับให้เขาต้องเผชิญหน้ากับตัวตนที่แท้ จริงของตนเองแล้ว ยังเพื่อให้เขาได้ค้นพบว่าเขาคู่ควรกับสิ่งที่เขาเกิ ดมาเพื่อเป็นหรือไม่…ในฐานะราชา

Complete name : Aquaman.2018.1080p.KORSUB.HDRip.x264.THR2.0.One2loadup.com.mkv
Format : Matroska
Format version : Version 4
File size : 4.43 GiB
Duration : 2 h 22 min
Overall bit rate : 4 449 kb/s
Movie name : Aquaman.2018.1080p.KORSUB.HDRip.x264.THR2.0.One2loadup.com
Encoded date : UTC 2019-01-24 03:16:13
Writing application : mkvmerge v9.9.0 (‘Pick Up’) 64bit
Writing library : libebml v1.3.4 + libmatroska v1.4.5

Video
ID : 1
Format : AVC
Format/Info : Advanced Video Codec
Format profile : [email protected]
Format settings : CABAC / 4 Ref Frames
Format settings, CABAC : Yes
Format settings, ReFrames : 4 frames
Codec ID : V_MPEG4/ISO/AVC
Duration : 2 h 22 min
Bit rate : 4 000 kb/s
Width : 1 920 pixels
Height : 800 pixels
Display aspect ratio : 2.40:1
Frame rate mode : Constant
Frame rate : 29.970 (30000/1001) FPS
Color space : YUV
Chroma subsampling : 4:2:0
Bit depth : 8 bits
Scan type : Progressive
Bits/(Pixel*Frame) : 0.087
Stream size : 3.98 GiB (90%)
Title : Aquaman.2018.1080p.KORSUB.HDRip.x264.THR2.0.One2loadup.com
Writing library : x264 core 142 r2479 dd79a61
Encoding settings : cabac=1 / ref=3 / deblock=1:0:0 / analyse=0x3:0x113 / me=hex / subme=7 / psy=1 / psy_rd=1.00:0.00 / mixed_ref=1 / me_range=16 / chroma_me=1 / trellis=1 / 8x8dct=1 / cqm=0 / deadzone=21,11 / fast_pskip=1 / chroma_qp_offset=-2 / threads=18 / lookahead_threads=3 / sliced_threads=0 / nr=0 / decimate=1 / interlaced=0 / bluray_compat=0 / constrained_intra=0 / bframes=3 / b_pyramid=2 / b_adapt=1 / b_bias=0 / direct=1 / weightb=1 / open_gop=0 / weightp=2 / keyint=300 / keyint_min=30 / scenecut=40 / intra_refresh=0 / rc_lookahead=40 / rc=2pass / mbtree=1 / bitrate=4000 / ratetol=1.0 / qcomp=0.60 / qpmin=0 / qpmax=69 / qpstep=4 / cplxblur=20.0 / qblur=0.5 / vbv_maxrate=62500 / vbv_bufsize=78125 / nal_hrd=none / filler=0 / ip_ratio=1.40 / aq=1:1.00
Language : Korean
Default : Yes
Forced : No
Color range : Limited
Color primaries : BT.709
Transfer characteristics : BT.709
Matrix coefficients : BT.709

Audio #1
ID : 2
Format : AC-3
Format/Info : Audio Coding 3
Commercial name : Dolby Digital
Codec ID : A_AC3
Duration : 2 h 22 min
Bit rate mode : Constant
Bit rate : 192 kb/s
Channel(s) : 2 channels
Channel layout : L R
Sampling rate : 48.0 kHz
Frame rate : 31.250 FPS (1536 SPF)
Bit depth : 16 bits
Compression mode : Lossy
Stream size : 196 MiB (4%)
Title : ThaiRong 2.0
Language : Thai
Service kind : Complete Main
Default : Yes
Forced : No

Audio #2
ID : 3
Format : AAC LC
Format/Info : Advanced Audio Codec Low Complexity
Codec ID : A_AAC-2
Duration : 2 h 22 min
Bit rate : 256 kb/s
Channel(s) : 2 channels
Channel layout : L R
Sampling rate : 48.0 kHz
Frame rate : 46.875 FPS (1024 SPF)
Compression mode : Lossy
Delay relative to video : 197 ms
Stream size : 261 MiB (6%)
Title : English 2.0 @ 256 kb/s
Language : English
Default : No
Forced : No

DOWNLOAD


PART01 |||| PART02 |||| PART03 |||| PART04 |||| PART05

PART01 |||| PART02 |||| PART03 |||| PART04 |||| PART05

PART01 |||| PART02 |||| PART03 |||| PART04 |||| PART05

PART01 |||| PART02 |||| PART03 |||| PART04 |||| PART05


Leave A Reply

Your email address will not be published.

%d bloggers like this: