โหลดหนัง HD MINI-HD SUPER-HQ Full-HD 1080p VIP Master Zoom ซูม หนังใหม่ ออนไลน์ มาสเตอร์ ไทย จีน ฝรั่ง การ์ตูน

[ฝรั่ง] Ant-Man and The Wasp (2018) แอนท์-แมน และ เดอะ วอสพ์ [1080p] [พากย์ไทย มาสเตอร์ + เสียงอังกฤษ 5.1] [บรรยายไทย + อังกฤษ] [เสียงไทย + ซับไทย]

0

โหลดหนัง Ant-Man and The Wasp (2018) แอนท์-แมน และ เดอะ วอสพ์

เรื่องย่อ Ant-Man and The Wasp (2018) แอนท์-แมน และ เดอะ วอสพ์

ควันหลงจาก กัปตัน อเมริกา: ซีวิล วอร์, สก็อตต์ แลงก์ ต้องรับมือกับผลลัพธ์ในสิ่งที่เขาเลือกทั้งในฐานะซูเ ปอร์ฮีโร่ และความเป็นพ่อในขณะเดียวกันนั้นเขาก็ต้องพยายามสร้างสมดุลของชีวิต ที่ครอบครัวและหน้าที่ความรับผิดชอบในฐานะ แอนท์-แมน เขาต้องร่วมมือกับ โฮป แวน ไดน์ และดร. แฮงค์ พิม ในภารกิจใหม่สุดเร่งด่วน สก็อตต์ต้องกลับมาสวมชุดใหม่อีกครั้ง และเรียนรู้ที่จะต่อสู้เป็นทีมไปพร้อมกับเดอะวอส์พเพื่อหาคำตอบในอดีตที่เป็นปริศนาของพวกเขา!!!

Complete name : Ant-Man.And.The.Wasp.2018.1080p.WEB-DL.AC3.x264.One2loadup.com.mkv
Format : Matroska
Format version : Version 4 / Version 2
File size : 4.52 GiB
Duration : 1 h 58 min
Overall bit rate : 5 472 kb/s
Movie name : Ant-Man.And.The.Wasp.2018.1080p.WEB-DL.AC3.x264.One2loadup.com
Encoded date : UTC 2010-02-22 21:41:31
Writing application : mkvmerge v5.9.0 (‘On The Loose’) built on Dec 9 2012 15:37:01
Writing library : libebml v1.3.0 + libmatroska v1.4.0

Video
ID : 1
Format : AVC
Format/Info : Advanced Video Codec
Format profile : [email protected]
Format settings : CABAC / 5 Ref Frames
Format settings, CABAC : Yes
Format settings, ReFrames : 5 frames
Codec ID : V_MPEG4/ISO/AVC
Duration : 1 h 58 min
Bit rate : 4 595 kb/s
Width : 1 920 pixels
Height : 804 pixels
Display aspect ratio : 2.40:1
Frame rate mode : Constant
Frame rate : 24.000 FPS
Color space : YUV
Chroma subsampling : 4:2:0
Bit depth : 8 bits
Scan type : Progressive
Bits/(Pixel*Frame) : 0.124
Stream size : 3.80 GiB (84%)
Title : Ant-Man.And.The.Wasp.2018.1080p.WEB-DL.AC3.x264.One2loadup.com
Language : English
Default : Yes
Forced : No
Color range : Limited
Color primaries : BT.709
Transfer characteristics : BT.709
Matrix coefficients : BT.709

Audio #1
ID : 2
Format : AC-3
Format/Info : Audio Coding 3
Codec ID : A_AC3
Duration : 1 h 58 min
Bit rate mode : Constant
Bit rate : 384 kb/s
Channel(s) : 2 channels
Channel positions : Front: L R
Sampling rate : 48.0 kHz
Frame rate : 31.250 FPS (1536 SPF)
Bit depth : 16 bits
Compression mode : Lossy
Stream size : 325 MiB (7%)
Title : Thai Master
Language : Thai
Service kind : Complete Main
Default : Yes
Forced : Yes

Audio #2
ID : 3
Format : AC-3
Format/Info : Audio Coding 3
Codec ID : A_AC3
Duration : 1 h 58 min
Bit rate mode : Constant
Bit rate : 384 kb/s
Channel(s) : 6 channels
Channel positions : Front: L C R, Side: L R, LFE
Sampling rate : 48.0 kHz
Frame rate : 31.250 FPS (1536 SPF)
Bit depth : 16 bits
Compression mode : Lossy
Stream size : 325 MiB (7%)
Title : English 5.1
Language : English
Service kind : Complete Main
Default : No
Forced : No

Text #1
ID : 4
Format : VobSub
Codec ID : S_VOBSUB
Codec ID/Info : Picture based subtitle format used on DVDs
Title : Thai 480p
Language : Thai
Default : No
Forced : No

Text #2
ID : 5
Format : VobSub
Codec ID : S_VOBSUB
Codec ID/Info : Picture based subtitle format used on DVDs
Title : Thai 720p
Language : Thai
Default : No
Forced : No

Text #3
ID : 6
Format : VobSub
Codec ID : S_VOBSUB
Codec ID/Info : Picture based subtitle format used on DVDs
Title : Thai 1080p
Language : Thai
Default : Yes
Forced : Yes

Text #4
ID : 7
Format : VobSub
Codec ID : S_VOBSUB
Codec ID/Info : Picture based subtitle format used on DVDs
Title : Thai 1080p Yellow
Language : Thai
Default : No
Forced : No

Text #5
ID : 8
Format : VobSub
Codec ID : S_VOBSUB
Codec ID/Info : Picture based subtitle format used on DVDs
Title : Thai 1080p Out
Language : Thai
Default : No
Forced : No

Text #6
ID : 9
Format : VobSub
Codec ID : S_VOBSUB
Codec ID/Info : Picture based subtitle format used on DVDs
Title : Thai 1080p BIG
Language : Thai
Default : No
Forced : No

Text #7
ID : 10
Format : VobSub
Codec ID : S_VOBSUB
Codec ID/Info : Picture based subtitle format used on DVDs
Title : Thai 1080p Out [BIG]
Language : Thai
Default : No
Forced : No

Text #8
ID : 11
Format : PGS
Codec ID : S_HDMV/PGS
Codec ID/Info : Picture based subtitle format used on BDs/HD-DVDs
Title : Thai PGS
Language : Thai
Default : No
Forced : No

Text #9
ID : 12
Format : PGS
Codec ID : S_HDMV/PGS
Codec ID/Info : Picture based subtitle format used on BDs/HD-DVDs
Title : Thai PGS Yellow
Language : Thai
Default : No
Forced : No

Text #10
ID : 13
Format : PGS
Codec ID : S_HDMV/PGS
Codec ID/Info : Picture based subtitle format used on BDs/HD-DVDs
Title : Thai PGS Out
Language : Thai
Default : No
Forced : No

Text #11
ID : 14
Format : PGS
Codec ID : S_HDMV/PGS
Codec ID/Info : Picture based subtitle format used on BDs/HD-DVDs
Title : English
Language : English
Default : No
Forced : No

DOWNLOAD


PART01 |||| PART02 |||| PART03 |||| PART04 |||| PART05

PART01 |||| PART02 |||| PART03 |||| PART04 |||| PART05

PART01 |||| PART02 |||| PART03 |||| PART04 |||| PART05

PART01 |||| PART02 |||| PART03 |||| PART04 |||| PART05


Leave A Reply

Your email address will not be published.

%d bloggers like this: