[ฝรั่ง] Aladdin (2019) อะลาดิน [1080p] [พากษ์ไทยโรง 2.0 + เสียงอังกฤษ 5.1] [บรรยายอังกฤษ] [เสียงไทย + ซับ ENG] [OPENLOAD]

0

โหลดหนัง Aladdin (2019) อะลาดิน

Aladdin (2019) 2h 8min | Adventure, Comedy, Family | 24 May 2019 (Canada) Summary: A kind-hearted street urchin and a power-hungry Grand Vizier vie for a magic lamp that has the power to make their deepest wishes come true.
Countries: USALanguages: English, Tamil

เรื่องย่อ Aladdin (2019) อะลาดิน

เรื่องราวของเด็กหนุ่มยากจนนามว่า อะลาดิน (มีนา มาซูด) เขาถูกพ่อมดจาฟาร์ หลอกล่อให้เข้าไปเอาตะเกียงในถ้ำสิงห์กลางทะเลทราย ที่นั่นอะลาดินได้ถูตะเกียงปลดปล่อยวิญญาณของยักษ์จี นี่ที่มาพร้อมกับพร 3 ประการ อะลาดินขอพรข้อแรกให้เขาได้เป็นเจ้าชายอาลีเพื่อจัดข บวนขันหมากสุดอลังการไปสู่ขอเจ้าหญิงจัสมิน เขาไปพร้อมกับพรมวิเศษและพาเจ้าหญิงออกเหาะชมโลกในเพลง a whole new world ภาพยนตร์เต็มไปด้วยการผจญภัย การแย่งชิงบัลลังก์ของจาฟาร์ และความอลังการของโปรดักชั่น

Complete name : Aladdin.2019.1080p.HDRip.x264.DD5.1-THR.AC3.2.0.One2loadup.com.mkv
Format : Matroska
Format version : Version 4
File size : 5.84 GiB
Duration : 2 h 7 min
Overall bit rate : 6 535 kb/s
Movie name : Aladdin.2019.1080p.HDRip.x264.DD5.1-THR.AC3.2.0.One2loadup.com
Encoded date : UTC 2019-08-07 12:08:31
Writing application : mkvmerge v35.0.0 (‘All The Love In The World’) 64-bit
Writing library : libebml v1.3.9 + libmatroska v1.5.2
Cover : Yes
Attachments : small_cover.jpg / small_cover_land.jpg / cover.jpg / cover_land.jpg

Video
ID : 1
Format : AVC
Format/Info : Advanced Video Codec
Format profile : [email protected]
Format settings : CABAC / 4 Ref Frames
Format settings, CABAC : Yes
Format settings, ReFrames : 4 frames
Codec ID : V_MPEG4/ISO/AVC
Duration : 2 h 7 min
Bit rate : 6 000 kb/s
Width : 1 920 pixels
Height : 1 080 pixels
Display aspect ratio : 16:9
Frame rate mode : Constant
Frame rate : 23.976 (24000/1001) FPS
Color space : YUV
Chroma subsampling : 4:2:0
Bit depth : 8 bits
Scan type : Progressive
Bits/(Pixel*Frame) : 0.121
Stream size : 5.32 GiB (91%)
Title : Aladdin.2019.1080p.HDRip.x264.DD5.1-THR.AC3.2.0.One2loadup.com
Writing library : x264 core 152 r2854 e9a5903
Encoding settings : cabac=1 / ref=3 / deblock=1:0:0 / analyse=0x3:0x133 / me=hex / subme=7 / psy=1 / psy_rd=1.00:0.00 / mixed_ref=1 / me_range=16 / chroma_me=1 / trellis=1 / 8x8dct=1 / cqm=0 / deadzone=21,11 / fast_pskip=1 / chroma_qp_offset=-2 / threads=24 / lookahead_threads=4 / sliced_threads=0 / nr=0 / decimate=1 / interlaced=0 / bluray_compat=0 / constrained_intra=0 / bframes=3 / b_pyramid=2 / b_adapt=1 / b_bias=0 / direct=1 / weightb=1 / open_gop=0 / weightp=2 / keyint=250 / keyint_min=25 / scenecut=40 / intra_refresh=0 / rc_lookahead=40 / rc=abr / mbtree=1 / bitrate=6000 / ratetol=1.0 / qcomp=0.60 / qpmin=10 / qpmax=51 / qpstep=4 / ip_ratio=1.40 / aq=1:1.00
Default : Yes
Forced : No

Audio #1
ID : 2
Format : AC-3
Format/Info : Audio Coding 3
Commercial name : Dolby Digital
Codec ID : A_AC3
Duration : 2 h 7 min
Bit rate mode : Constant
Bit rate : 192 kb/s
Channel(s) : 2 channels
Channel layout : L R
Sampling rate : 48.0 kHz
Frame rate : 31.250 FPS (1536 SPF)
Bit depth : 16 bits
Compression mode : Lossy
Stream size : 176 MiB (3%)
Title : เสียงไทยโรง 2.0
Language : Thai
Service kind : Complete Main
Default : No
Forced : No

Audio #2
ID : 3
Format : AC-3
Format/Info : Audio Coding 3
Commercial name : Dolby Digital
Codec ID : A_AC3
Duration : 2 h 7 min
Bit rate mode : Constant
Bit rate : 384 kb/s
Channel(s) : 6 channels
Channel layout : L R C LFE Ls Rs
Sampling rate : 48.0 kHz
Frame rate : 31.250 FPS (1536 SPF)
Bit depth : 16 bits
Compression mode : Lossy
Stream size : 351 MiB (6%)
Title : Aladdin.2019.1080p.HDRip.x264.DD5.1
Language : English
Service kind : Complete Main
Default : Yes
Forced : No

Text #1
ID : 4
Format : UTF-8
Codec ID : S_TEXT/UTF8
Codec ID/Info : UTF-8 Plain Text
Duration : 1 h 58 min
Bit rate : 50 b/s
Count of elements : 1682
Stream size : 43.4 KiB (0%)
Language : English
Default : Yes
Forced : No

Text #2
ID : 5
Format : UTF-8
Codec ID : S_TEXT/UTF8
Codec ID/Info : UTF-8 Plain Text
Duration : 2 h 7 min
Bit rate : 69 b/s
Count of elements : 2433
Stream size : 65.1 KiB (0%)
Title : SDH
Language : English
Default : No
Forced : No

DOWNLOAD


PART01 |||| PART02 |||| PART03 |||| PART04 |||| PART05 |||| PART06 |||| PART07

PART01 |||| PART02 |||| PART03 |||| PART04 |||| PART05 |||| PART06 |||| PART07

PART01 |||| PART02 |||| PART03 |||| PART04 |||| PART05 |||| PART06 |||| PART07

PART01 |||| PART02 |||| PART03 |||| PART04 |||| PART05 |||| PART06 |||| PART07


Leave A Reply

Your email address will not be published.

%d bloggers like this: