โหลดหนัง HD MINI-HD SUPER-HQ Full-HD 1080p VIP Master Zoom ซูม หนังใหม่ ออนไลน์ มาสเตอร์ ไทย จีน ฝรั่ง การ์ตูน

[ฝรั่ง] A-X-L (2018) แอคเซล โคตรหมาเหล็ก [1080p] [พากย์ไทยโรง 2.0 + เสียงอังกฤษ 2.0] [ภาพเกือบชัด + เสียงไทยโรง]

0

โหลดหนัง  A-X-L (2018) แอคเซล โคตรหมาเหล็ก

เรื่องย่อ A-X-L (2018) แอคเซล โคตรหมาเหล็ก

AXL เพื่อนรู้ใจสี่ขาของมนุษย์กำลังมีการพัฒนาไปอีกระดับ “แอคเซล” ยุทโธปกรณ์ทางการทหารล่าสุดที่มีลักษณะคล้ายกับสุนัข มันคือเครื่องจักรสังหารประสิทธิภาพสูง เพียบพร้อมไปด้วยอาวุธสังหารและความสามารถในการเคลื่ อนที่อันฉับไว รวมถึงปัญญาประดิษฐ์อันล้ำสมัย แต่ชะตากรรมของเครื่องจักรสังหารตัวนี้ก็ได้เปลี่ยนไ ปตลอดกาล เมื่อมันได้พบกับ ไมลส์ (อเล็กซ์ นิวสแตเทอร์) เด็กหนุ่มผู้ชื่นชอบการขี่มอเตอร์ไซด์ผาดโผน ผู้กลายเป็นทั้งเพื่อนและเจ้าของ แต่นักวิทยาศาสตร์ที่สร้างแอคเซลต้องการนำตัวมันกลับมา ไมลส์จึงต้องร่วมมือกับ ซาร่า (เบ็คกี้ จี) เพื่อนสาวสุดเปรื่อง เพื่อปกป้องไม่ให้เพื่อนซี้สี่ขาตัวใหม่ของเขาต้องกลายเป็นเครื่องจักรสงคราม

Complete name : A-X-L.2018.1080p.HDCAM.THR2.0.×264.One2loadup.com.mkv
Format : Matroska
Format version : Version 4 / Version 2
File size : 2.11 GiB
Duration : 1 h 30 min
Overall bit rate mode : Variable
Overall bit rate : 3 316 kb/s
Movie name : A-X-L.2018.1080p.HDCAM.THR2.0.×264.One2loadup.com
Encoded date : UTC 2018-09-07 18:58:32
Writing application : mkvmerge v25.0.0 (‘Prog Noir’) 32-bit
Writing library : libebml v1.3.6 + libmatroska v1.4.9

Video
ID : 1
Format : AVC
Format/Info : Advanced Video Codec
Format profile : [email protected]
Format settings : CABAC / 4 Ref Frames
Format settings, CABAC : Yes
Format settings, ReFrames : 4 frames
Codec ID : V_MPEG4/ISO/AVC
Duration : 1 h 30 min
Bit rate mode : Variable
Bit rate : 3 000 kb/s
Maximum bit rate : 62.5 Mb/s
Width : 1 904 pixels
Height : 784 pixels
Display aspect ratio : 2.40:1
Frame rate mode : Constant
Frame rate : 30.000 FPS
Color space : YUV
Chroma subsampling : 4:2:0
Bit depth : 8 bits
Scan type : Progressive
Bits/(Pixel*Frame) : 0.067
Stream size : 1.91 GiB (91%)
Title : A-X-L.2018.1080p.HDCAM.THR2.0.×264.One2loadup.com
Writing library : x264 core 148 r2638 7599210
Encoding settings : cabac=1 / ref=5 / deblock=1:-1:-1 / analyse=0x3:0x133 / me=umh / subme=9 / psy=1 / psy_rd=1.00:0.15 / mixed_ref=1 / me_range=18 / chroma_me=1 / trellis=2 / 8x8dct=1 / cqm=0 / deadzone=21,11 / fast_pskip=0 / chroma_qp_offset=-3 / threads=16 / lookahead_threads=1 / sliced_threads=0 / slices=4 / nr=0 / decimate=1 / interlaced=0 / bluray_compat=0 / constrained_intra=0 / bframes=3 / b_pyramid=1 / b_adapt=2 / b_bias=0 / direct=3 / weightb=1 / open_gop=0 / weightp=0 / keyint=300 / keyint_min=30 / scenecut=40 / intra_refresh=0 / rc_lookahead=40 / rc=abr / mbtree=1 / bitrate=3000 / ratetol=1.0 / qcomp=0.60 / qpmin=10 / qpmax=51 / qpstep=4 / vbv_maxrate=62500 / vbv_bufsize=78125 / nal_hrd=vbr / filler=0 / ip_ratio=1.40 / aq=1:1.00
Language : English
Default : Yes
Forced : No
Color range : Full
Color primaries : BT.709
Transfer characteristics : BT.709
Matrix coefficients : BT.709

Audio #1
ID : 2
Format : AC-3
Format/Info : Audio Coding 3
Codec ID : A_AC3
Duration : 1 h 30 min
Bit rate mode : Constant
Bit rate : 192 kb/s
Channel(s) : 2 channels
Channel positions : Front: L R
Sampling rate : 48.0 kHz
Frame rate : 31.250 FPS (1536 SPF)
Bit depth : 16 bits
Compression mode : Lossy
Stream size : 125 MiB (6%)
Title : ThaiRong 2.0
Language : Thai
Service kind : Complete Main
Default : Yes
Forced : No

Audio #2
ID : 3
Format : AAC
Format/Info : Advanced Audio Codec
Format profile : LC
Codec ID : A_AAC-2
Duration : 1 h 30 min
Bit rate : 118 kb/s
Channel(s) : 2 channels
Channel positions : Front: L R
Sampling rate : 48.0 kHz
Frame rate : 46.875 FPS (1024 SPF)
Compression mode : Lossy
Stream size : 76.6 MiB (4%)
Title : English 2.0 @ 118 kb/s
Language : English
Default : No
Forced : No

DOWNLOAD


PART01 |||| PART02 |||| PART03

PART01 |||| PART02 |||| PART03

PART01 |||| PART02 |||| PART03

PART01 |||| PART02 |||| PART03


Leave A Reply

Your email address will not be published.

%d bloggers like this: