โหลดหนัง HD MINI-HD SUPER-HQ Full-HD 1080p VIP Master Zoom ซูม หนังใหม่ ออนไลน์ มาสเตอร์ ไทย จีน ฝรั่ง การ์ตูน

[ฝรั่ง] 6 Days (2017) 6 วันล่าสุดขีด [1080p] [พากย์ไทย 2.0 + เสียงอังกฤษ 5.1] [บรรยายอังกฤษ] [เสียงไทย + ซับ Eng]

0

6 Days (2017) 6 วันล่าสุดขีด

โหลดหนัง 6 Days (2017) 6 วันล่าสุดขีด

เรื่องย่อ 6 Days (2017) 6 วันล่าสุดขีด

วันที่ 30 เมษายน ปีค.ศ. 1980 ได้เกิดเหตุผู้ก่อการร้าย 6 คนบุกยึดสถานทูตอิหร่านประจำกรุงลอนดอน ทำให้รัฐบาลต้องเตรียมความพร้อมรับมือเหตุการณ์ไม่คา ดฝัน โดยเริ่มจากการเจรจาต่อรองและมีทีมจากหน่วย SAS (Special Air Service) มารอเข้าจู่โจมหากมีตัวประกันเสียชีวิต

Complete name : 6.Days.2017.1080p.DD5.1.H264.One2loadup.com.mkv
Format : Matroska
Format version : Version 4 / Version 2
File size : 3.35 GiB
Duration : 1 h 34 min
Overall bit rate : 5 085 kb/s
Movie name : 6.Days.2017.1080p.DD5.1.H264.One2loadup.com
Encoded date : UTC 2018-09-11 19:36:42
Writing application : mkvmerge v26.0.0 (‘In The Game’) 64-bit
Writing library : libebml v1.3.6 + libmatroska v1.4.9
Cover : Yes
Attachments : cover_land.jpg / small_cover.jpg / small_cover_land.jpg / cover.jpg

Video
ID : 1
Format : AVC
Format/Info : Advanced Video Codec
Format profile : [email protected]
Format settings : CABAC / 5 Ref Frames
Format settings, CABAC : Yes
Format settings, ReFrames : 5 frames
Codec ID : V_MPEG4/ISO/AVC
Duration : 1 h 34 min
Bit rate : 4 572 kb/s
Width : 1 920 pixels
Height : 792 pixels
Display aspect ratio : 2.40:1
Frame rate mode : Constant
Frame rate : 23.976 (23976/1000) FPS
Color space : YUV
Chroma subsampling : 4:2:0
Bit depth : 8 bits
Scan type : Progressive
Bits/(Pixel*Frame) : 0.125
Stream size : 3.01 GiB (90%)
Title : 6.Days.2017.1080p.DD5.1.H264.One2loadup.com
Language : English
Default : Yes
Forced : No
Color range : Limited
Color primaries : BT.709
Transfer characteristics : BT.709
Matrix coefficients : BT.709

Audio #1
ID : 2
Format : AC-3
Format/Info : Audio Coding 3
Codec ID : A_AC3
Duration : 1 h 34 min
Bit rate mode : Constant
Bit rate : 384 kb/s
Channel(s) : 6 channels
Channel positions : Front: L C R, Side: L R, LFE
Sampling rate : 48.0 kHz
Frame rate : 31.250 FPS (1536 SPF)
Bit depth : 16 bits
Compression mode : Lossy
Delay relative to video : -42 ms
Stream size : 259 MiB (8%)
Title : 6.Days.2017.1080p.DD5.1.H264.One2loadup.com
Language : English
Service kind : Complete Main
Default : No
Forced : No

Audio #2
ID : 3
Format : AAC
Format/Info : Advanced Audio Codec
Format profile : LC
Codec ID : A_AAC-2
Duration : 1 h 34 min
Bit rate : 126 kb/s
Channel(s) : 2 channels
Channel positions : Front: L R
Sampling rate : 44.1 kHz
Frame rate : 43.066 FPS (1024 SPF)
Compression mode : Lossy
Delay relative to video : -41 ms
Stream size : 84.8 MiB (2%)
Language : Thai
Default : Yes
Forced : No

Text #1
ID : 4
Format : UTF-8
Codec ID : S_TEXT/UTF8
Codec ID/Info : UTF-8 Plain Text
Duration : 1 h 29 min
Bit rate : 99 b/s
Count of elements : 1012
Stream size : 65.3 KiB (0%)
Language : English
Default : No
Forced : No

Text #2
ID : 5
Format : UTF-8
Codec ID : S_TEXT/UTF8
Codec ID/Info : UTF-8 Plain Text
Duration : 1 h 1 min
Bit rate : 1 b/s
Count of elements : 25
Stream size : 590 Bytes (0%)
Title : FORCED
Language : English
Default : Yes
Forced : Yes

Menu
00:00:00.000 : en:01
00:06:02.000 : en:02
00:12:02.000 : en:03
00:18:02.000 : en:04
00:24:07.000 : en:05
00:30:04.000 : en:06
00:36:09.000 : en:07
00:42:05.000 : en:08
00:49:00.000 : en:09
00:54:19.000 : en:10
01:00:54.000 : en:11
01:06:31.000 : en:12
01:12:10.000 : en:13
01:18:05.000 : en:14
01:24:10.000 : en:15
01:30:15.000 : en:16

DOWNLOAD


PART01 |||| PART02 |||| PART03 |||| PART04

PART01 |||| PART02 |||| PART03 |||| PART04

PART01 |||| PART02 |||| PART03 |||| PART04

PART01 |||| PART02 |||| PART03 |||| PART04


Leave A Reply

Your email address will not be published.

%d bloggers like this: