เว็บโหลดหนัง HD MINI-HD SUPER-HQ Full-HD 1080p One2up VIP Master Zoom ซูม หนังใหม่ ออนไลน์ มาสเตอร์ ไทย จีน ฝรั่ง การ์ตูน

[ญี่ปุ่น] High & Low: The Movie 3 – Final Mission (2017) [720p] [พากย์ญี่ปุ่น 2.0] [Soundtrack บรรยายไทย] [เสียงญี่ปุ่น + ซับไทย] [FILECLOUD]

0

High & Low: The Movie 3 - Final Mission (2017)

โหลดหนัง High & Low: The Movie 3 – Final Mission (2017) 

เรื่องย่อ High & Low: The Movie 3 – Final Mission (2017)

เพื่อปกปิดความผิดที่ผ่านมาของรัฐบาล กลุ่มคุริวดำเนินการตามแผนการทำลายเมืองและสร้างคาสิ โน เพื่อหยุดกลุ่มคุริว สมาชิกของ SWORD เริ่มเคลื่อนไหวเพื่อหยุดยั้งมัน มาดูบทสรุปของ Series HIG&LOW กันได้เลย

Complete name : High&Low.The.Movie.3.Final.Mission.2017.×264.AC2.0.One2loadup.com.mp4
Format : MPEG-4
Format profile : Base Media
Codec ID : isom (isom/iso2/avc1/mp41)
File size : 3.41 GiB
Duration : 1 h 58 min
Overall bit rate : 4 121 kb/s
Movie name : High&Low.The.Movie.3.Final.Mission.2017.×264.AC2.0.One2loadup.com
Writing application : Lavf56.36.100
Comment : Thai Sub by C.Padet

Video
ID : 1
Format : AVC
Format/Info : Advanced Video Codec
Format profile : [email protected]
Format settings : 2 Ref Frames
Format settings, CABAC : No
Format settings, ReFrames : 2 frames
Codec ID : avc1
Codec ID/Info : Advanced Video Coding
Duration : 1 h 58 min
Bit rate : 4 000 kb/s
Width : 1 280 pixels
Height : 536 pixels
Display aspect ratio : 2.40:1
Frame rate mode : Constant
Frame rate : 25.000 FPS
Color space : YUV
Chroma subsampling : 4:2:0
Bit depth : 8 bits
Scan type : Progressive
Bits/(Pixel*Frame) : 0.233
Stream size : 3.30 GiB (97%)
Writing library : x264 core 148 r2579 73ae2d1
Encoding settings : cabac=0 / ref=2 / deblock=1:0:0 / analyse=0x1:0x111 / me=umh / subme=6 / psy=1 / psy_rd=1.00:0.00 / mixed_ref=1 / me_range=16 / chroma_me=1 / trellis=0 / 8x8dct=0 / cqm=0 / deadzone=21,11 / fast_pskip=1 / chroma_qp_offset=-2 / threads=6 / lookahead_threads=1 / sliced_threads=0 / nr=0 / decimate=1 / interlaced=0 / bluray_compat=0 / constrained_intra=0 / bframes=0 / weightp=0 / keyint=250 / keyint_min=25 / scenecut=40 / intra_refresh=0 / rc_lookahead=40 / rc=abr / mbtree=1 / bitrate=4000 / ratetol=1.0 / qcomp=0.60 / qpmin=0 / qpmax=69 / qpstep=4 / ip_ratio=1.40 / aq=1:1.00
Language : Japanese
Menus : 3

Audio
ID : 2
Format : AAC
Format/Info : Advanced Audio Codec
Format profile : LC
Codec ID : mp4a-40-2
Duration : 1 h 58 min
Duration_LastFrame : -21 ms
Bit rate mode : Constant
Bit rate : 128 kb/s
Channel(s) : 2 channels
Channel positions : Front: L R
Sampling rate : 44.1 kHz
Frame rate : 43.066 FPS (1024 SPF)
Compression mode : Lossy
Stream size : 108 MiB (3%)
Language : Japanese
Default : Yes
Alternate group : 1
Menus : 3

Menu #1
ID : 3
Codec ID : text
Duration : 1 h 58 min
Language : English
Bit rate mode : CBR
Menu For : 1,2
00:00:00.000 : 00:00:00.000
00:13:17.213 : 00:13:17.213
00:18:56.176 : 00:18:56.176
00:31:08.283 : 00:31:08.283
00:43:03.581 : 00:43:03.581
00:54:09.829 : 00:54:09.829
01:13:28.112 : 01:13:28.112
01:22:48.004 : 01:22:48.004
01:29:33.618 : 01:29:33.618
01:42:40.821 : 01:42:40.821

Menu #2
00:00:00.000 : HIGH&LOW THE MOVIE 3 Final Mission 2017
00:13:17.213 : HIGH&LOW THE MOVIE 3 Final Mission 2017
00:18:56.176 : HIGH&LOW THE MOVIE 3 Final Mission 2017
00:31:08.283 : HIGH&LOW THE MOVIE 3 Final Mission 2017
00:43:03.581 : HIGH&LOW THE MOVIE 3 Final Mission 2017
00:54:09.829 : HIGH&LOW THE MOVIE 3 Final Mission 2017
01:13:28.112 : HIGH&LOW THE MOVIE 3 Final Mission 2017
01:22:48.004 : HIGH&LOW THE MOVIE 3 Final Mission 2017
01:29:33.618 : HIGH&LOW THE MOVIE 3 Final Mission 2017
01:42:40.821 : HIGH&LOW THE MOVIE 3 Final Mission 2017

DOWNLOAD


PART01 |||| PART02 |||| PART03 |||| PART04

PART01 |||| PART02 |||| PART03 |||| PART04

PART01 |||| PART02 |||| PART03 |||| PART04

PART01 |||| PART02 |||| PART03 |||| PART04


Leave A Reply

Your email address will not be published.

%d bloggers like this: