โหลดหนัง HD MINI-HD SUPER-HQ Full-HD 1080p VIP Master Zoom ซูม หนังใหม่ ออนไลน์ มาสเตอร์ ไทย จีน ฝรั่ง การ์ตูน

[ญี่ปุ่น] Blade Of The Immortal (2017) ฤทธิ์ดาบไร้ปราณี [1080p] [พากย์ญี่ปุ่น] [Soundtrack บรรยายไทย] [เสียงญี่ปุ่น + ซับไทยฝัง]

0

Blade Of The Immortal (2017) ฤทธิ์ดาบไร้ปราณี

โหลดหนัง Blade Of The Immortal (2017) ฤทธิ์ดาบไร้ปราณี 

เรื่องย่อ Blade Of The Immortal (2017) ฤทธิ์ดาบไร้ปราณี

ย้อนหลังไป 2 ปีก่อน สำนักมุเทนอิจิริวถูกถล่มจนย่อยยับโดย อาโน คาเงฮิสะ ผู้นำแห่งอิตสึโทริว ผู้ประกาศกร้าวว่าจะทำลายทุกสำนักในญี่ปุ่นให้เหลือเพียง อิตสึโทริวเท่านั้นบ้าพลังดีแท้ แต่ในการถล่มสำนักมุเทนอิจิริว ครั้งนั้นก็มีลูกสาวของเจ้าสำนักมุเทนอิจิริว รอดชีวิตมาได้คนนึง อาธาโนะ ริน สาวน้อยผู้รอดชีวิตได้สาบานว่าจะต้องล้างแค้นให้กับพ่อแม่ของเธอให้ได้ เธอจึงออกเดินทางเพื่อฝึกฝนวิชาจนได้พบกับ ยาโอยิคุนิ ยาโอบิคุนิแนะนำเธอให้จ้างคนมาค่อยคุ้มกันและนั้นแหละคือต้นเรื่องที่ทำให้ ริน และมันยิมาพบกัน แล้วการเดินทางระหว่างมันยิและรินเพื่อทำลายล้างอิตสึโทริวก็ได้เริ่มขึ้น…

Complete name : Blade.of.the.Immortal.2017.1080p.Subthai.One2loadup.com.mp4
Format : MPEG-4
Format profile : Base Media / Version 2
Codec ID : mp42 (isom/iso2/avc1/mp41/mp42)
File size : 3.08 GiB
Duration : 2 h 21 min
Overall bit rate mode : Variable
Overall bit rate : 3 119 kb/s
Writing application : IsoMedia File produced by RapidVideo.com

Video
ID : 1
Format : AVC
Format/Info : Advanced Video Codec
Format profile : [email protected]
Format settings : 1 Ref Frames
Format settings, CABAC : No
Format settings, ReFrames : 1 frame
Codec ID : avc1
Codec ID/Info : Advanced Video Coding
Duration : 2 h 21 min
Bit rate mode : Variable
Bit rate : 2 925 kb/s
Maximum bit rate : 9 000 kb/s
Width : 1 920 pixels
Height : 800 pixels
Display aspect ratio : 2.40:1
Frame rate mode : Constant
Frame rate : 23.976 (24000/1001) FPS
Color space : YUV
Chroma subsampling : 4:2:0
Bit depth : 8 bits
Scan type : Progressive
Bits/(Pixel*Frame) : 0.079
Stream size : 2.89 GiB (94%)
Tagged date : UTC 2018-01-02 23:28:30

Audio
ID : 2
Format : AAC
Format/Info : Advanced Audio Codec
Format profile : LC
Codec ID : mp4a-40-2
Duration : 2 h 21 min
Source duration : 2 h 21 min
Bit rate mode : Constant
Bit rate : 192 kb/s
Channel(s) : 2 channels
Channel positions : Front: L R
Sampling rate : 44.1 kHz
Frame rate : 43.066 FPS (1024 SPF)
Compression mode : Lossy
Stream size : 194 MiB (6%)
Source stream size : 194 MiB (6%)
Default : Yes
Alternate group : 1
Tagged date : UTC 2018-01-02 23:28:30

DOWNLOAD


PART01 |||| PART02 |||| PART03 |||| PART04

PART01 |||| PART02 |||| PART03 |||| PART04

PART01 |||| PART02 |||| PART03 |||| PART04

PART01 |||| PART02 |||| PART03 |||| PART04


Leave A Reply

Your email address will not be published.

%d bloggers like this: