โหลดหนัง HD MINI-HD SUPER-HQ Full-HD 1080p VIP Master Zoom ซูม หนังใหม่ ออนไลน์ มาสเตอร์ ไทย จีน ฝรั่ง การ์ตูน

[ญีปุ่น] White Lily (2016) ไวท์ลิลลี่ [แนว 18+] [720p] [พากย์ญี่ปุ่น 5.1] [Soundtrack บรรยายไทย + จีน + อังกฤษ] [เสียงญี่ปุ่น + ซับไทย + ซับจีน] [ONE2UP]

โหลดหนัง White Lily (2016) ไวท์ลิลลี่

เรื่องย่อ White Lily (2016) ไวท์ลิลลี่

โทกิโกะศิลปินเซรามิกชื่อดังและสามีของเธอพบฮารุกะเป็นวัยรุ่นหนีและพาเธอไปที่บ้านของพวกเขาที่โทกิโกะสอนเรื่องเซรามิก เมื่อสามีของ Tokiko เสียชีวิต Haruka สัญญาว่าจะอยู่กับครูของเธอและทำทุกอย่างที่เธอขอ พวกเขาพัฒนาความสัมพันธ์แบบเลสเบี้ยน แต่โทกิโกะจมความเศร้าในแอลกอฮอล์และมีการเผชิญหน้าทางเพศที่ไม่มีความหมายอย่างจริงจังกับผู้ชายหลายคนขณะที่ฮารุกะได้ยิน โทคิโกะในที่สุดก็เชิญซาโตรุนักเรียนหนุ่มที่สัญญาว่าจะเป็นเด็กฝึกงานของเธอและเริ่มมีความสัมพันธ์ทางเพ ศกับเขาแม้ว่าเขาจะบอกเธอว่าเขามีแฟนสะโตะรุเริ่มให้ความสนใจกับฮารุกะผู้มีอายุเท่ากันและจีบเธออย่างจริงจัง โทกิโกะจับพวกเขาและโกรธฮารุกะถึงชอบผู้ชายบังคับให้ พวกเขามีเซ็กซ์บนโต๊ะตรงหน้าเธอ Akane แฟนสาวของ Satoru ค้นพบและจับมีดครัวขนาดใหญ่ขู่ว่าจะฆ่าตัวตาย สะโตะรุกระโดดใส่เธอแล้วเธอก็ตัดเขาด้วยมีด จากนั้นเธอก็พุ่งไปที่ Tokiko ด้วยมีด แต่ Haruka กระโดดไปข้างหน้า Tokiko และถูกแทงที่ท้องในวันที่ในอนาคต Haruka ทำให้ Tokiko ประหลาดใจโดยกลับไปที่ศิลปของเธอซึ่งทั้งสองได้รักอีกครั้ง

Complete name : White.Lily.2016.720p.BluRay.x264.Subthai.One2loadup.com.mkv
Format : Matroska
Format version : Version 4
File size : 3.00 GiB
Duration : 1 h 20 min
Overall bit rate : 5 354 kb/s
Movie name : White.Lily.2016.720p.BluRay.x264.Subthai.One2loadup.com
Encoded date : UTC 2019-01-16 12:31:20
Writing application : mkvmerge v26.0.0 (‘In The Game’) 64-bit
Writing library : libebml v1.3.6 + libmatroska v1.4.9

Video
ID : 1
Format : AVC
Format/Info : Advanced Video Codec
Format profile : [email protected]
Format settings : CABAC / 9 Ref Frames
Format settings, CABAC : Yes
Format settings, ReFrames : 9 frames
Codec ID : V_MPEG4/ISO/AVC
Duration : 1 h 20 min
Bit rate : 4 904 kb/s
Width : 1 280 pixels
Height : 692 pixels
Display aspect ratio : 1.85:1
Frame rate mode : Constant
Frame rate : 23.976 (24000/1001) FPS
Color space : YUV
Chroma subsampling : 4:2:0
Bit depth : 8 bits
Scan type : Progressive
Bits/(Pixel*Frame) : 0.231
Stream size : 2.75 GiB (92%)
Title : White.Lily.2016.720p.BluRay.x264.Subthai.One2loadup.com
Writing library : x264 core 129 r2245+704+36 8e61944 tMod+MixAQ [[email protected]:2:0 X86_64]
Encoding settings : cabac=1 / ref=9 / deblock=1:-3:-3 / analyse=0x3:0x133 / me=umh / subme=11 / psy=1 / fade_compensate=0.00 / psy_rd=1.05:0.10 / mixed_ref=1 / me_range=32 / chroma_me=1 / trellis=2 / 8x8dct=1 / cqm=0 / deadzone=21,11 / fast_pskip=0 / chroma_qp_offset=-3 / threads=18 / lookahead_threads=3 / sliced_threads=0 / nr=0 / decimate=0 / interlaced=0 / bluray_compat=0 / constrained_intra=0 / fgo=0 / bframes=10 / b_pyramid=2 / b_adapt=2 / b_bias=0 / direct=3 / weightb=1 / open_gop=0 / weightp=2 / keyint=250 / keyint_min=23 / scenecut=40 / intra_refresh=0 / rc=2pass / mbtree=0 / bitrate=4904 / ratetol=1.0 / qcomp=0.70 / qpmin=0 / qpmax=69 / qpstep=4 / cplxblur=20.0 / qblur=0.5 / ip_ratio=1.40 / pb_ratio=1.30 / aq=1 / aq-strength=0.90 / aq-sensitivity=10.00 / aq-ifactor=1.00 / aq-pfactor=1.00 / aq-bfactor=1.00 / aq2=0
Language : Japanese
Default : Yes
Forced : No

Audio
ID : 2
Format : AC-3
Format/Info : Audio Coding 3
Commercial name : Dolby Digital
Codec ID : A_AC3
Duration : 1 h 20 min
Bit rate mode : Constant
Bit rate : 448 kb/s
Channel(s) : 6 channels
Channel layout : L R C LFE Ls Rs
Sampling rate : 48.0 kHz
Frame rate : 31.250 FPS (1536 SPF)
Bit depth : 16 bits
Compression mode : Lossy
Stream size : 257 MiB (8%)
Language : Japanese
Service kind : Complete Main
Default : Yes
Forced : No

Text #1
ID : 3
Format : UTF-8
Codec ID : S_TEXT/UTF8
Codec ID/Info : UTF-8 Plain Text
Duration : 1 h 19 min
Bit rate : 19 b/s
Count of elements : 606
Stream size : 11.5 KiB (0%)
Title : Simplified
Language : Chinese
Default : Yes
Forced : No

Text #2
ID : 4
Format : UTF-8
Codec ID : S_TEXT/UTF8
Codec ID/Info : UTF-8 Plain Text
Duration : 1 h 19 min
Bit rate : 19 b/s
Count of elements : 606
Stream size : 11.5 KiB (0%)
Title : Traditional
Language : Chinese
Default : No
Forced : No

Text #3
ID : 5
Format : ASS
Codec ID : S_TEXT/ASS
Codec ID/Info : Advanced Sub Station Alpha
Duration : 1 h 19 min
Bit rate : 74 b/s
Count of elements : 606
Compression mode : Lossless
Stream size : 43.0 KiB (0%)
Language : Thai
Default : No
Forced : No

Text #4
ID : 6
Format : ASS
Codec ID : S_TEXT/ASS
Codec ID/Info : Advanced Sub Station Alpha
Duration : 1 h 19 min
Bit rate : 43 b/s
Count of elements : 606
Compression mode : Lossless
Stream size : 25.3 KiB (0%)
Language : English
Default : No
Forced : No

Menu
00:00:00.000 : en:00:00:00.000
00:17:23.667 : en:00:17:23.667
00:28:42.846 : en:00:28:42.846
00:43:28.772 : en:00:43:28.772
00:59:43.997 : en:00:59:43.997
01:09:41.135 : en:01:09:41.135
01:20:16.353 : en:01:20:16.353

DOWNLOAD


PART01 |||| PART02 |||| PART03 |||| PART04

PART01 |||| PART02 |||| PART03 |||| PART04

PART01 |||| PART02 |||| PART03 |||| PART04

PART01 |||| PART02 |||| PART03 |||| PART04


Leave A Reply

Your email address will not be published.

%d bloggers like this: