[จีน] Sex and Zen: Extreme Ecstasy (2011) ตำรารักทะลุจอ [18+] [1080p] [พากย์ไทย 5.1 + เสียงจีน DTS] [บรรยายไทย + อังกฤษ + จีน] [เสียงไทย + ซับไทย] [OPENLOAD]

0

โหลดหนัง Sex and Zen: Extreme Ecstasy (2011) ตำรารักทะลุจอ

3D Yuk po tuen: Gik lok bo gam (2011) 2h 9min | Comedy, Drama | 14 April 2011 (Hong Kong) Summary: As a conceited scholar of the Ming Dynasty, Wei Yangsheng believes that since life is short, one should pursue the ultimate sexual pleasure as time allows. Wei Yangsheng encounters Tie Fei ... See full summary »
Countries: Hong KongLanguages: Cantonese

เรื่องย่อ Sex and Zen: Extreme Ecstasy (2011) ตำรารักทะลุจอ

Wei Yangshen (Hiro Hayama) นักวิชาการจากราชวงศ์หมิงเขาเชื่อว่า ชีวิตนี้แสนสั้น ต้องหาความสุขและตักตวงให้มากที่สุด โดยเฉพาะเรื่องเพศที่ดีจนกระทั่งเขาได้พบรักกับ Tie Yuxiang (Leni Lan) Wei Yangsheng แต่งงานแล้ว ภายใต้การคลุมถุงชนของบิดาแต่เธอไม่สามารถตอบสนองความต้องการทางเพศได้อย่างเต็มที่ให้กับ Wei Yangsheng ซึ่งเรื่องนี้ ความจริงเกิดจากปมด้อยของเขาเอง จนกระทั่งเขาได้เข้าไปพัวพันกับเรื่องราวในวังและได้ถูกท้าทายให้ร่วมรักกับสนมของเจ้าชายหนิง คือ Reizhu (Saori Hara) และ Dongmei (Yukiko Suo) น่าเสียดายที่ทำไม่สำเร็จ เนื่องจากปมด้อยของเขา จนกระทั่งได้รับความช่วยเหลือจาก Elder Bliss (Vonnie Lui) ผ่านการปลูกถ่ายอวัยวะเพศชาย แถมยังสอนทักษะต่างๆที่ทำให้เขาทำภารกิจได้สำเร็จ ไม่ว่าจะเดี่ยวหรือหมู่แต่นี่คือ… แผนอันชั่วร้าย !!!

Complete name : [HD]_Sex.and.Zen.Extreme.Ecstasy.2011.1080p.FullHD.DTS.x264.One2loadup.com.mkv
Format : Matroska
Format version : Version 4
File size : 12.2 GiB
Duration : 1 h 53 min
Overall bit rate mode : Variable
Overall bit rate : 15.4 Mb/s
Movie name : [HD]_Sex.and.Zen.Extreme.Ecstasy.2011.1080p.FullHD.DTS.x264.One2loadup.com
Encoded date : UTC 2015-12-07 17:56:58
Writing application : mkvmerge v8.2.0 (‘World of Adventure’) 64bit
Writing library : libebml v1.3.1 + libmatroska v1.4.2

Video
ID : 1
Format : AVC
Format/Info : Advanced Video Codec
Format profile : [email protected]
Format settings : CABAC / 2 Ref Frames
Format settings, CABAC : Yes
Format settings, ReFrames : 2 frames
Codec ID : V_MPEG4/ISO/AVC
Duration : 1 h 52 min
Bit rate mode : Variable
Bit rate : 13.5 Mb/s
Maximum bit rate : 40.0 Mb/s
Width : 1 920 pixels
Height : 1 080 pixels
Display aspect ratio : 16:9
Frame rate mode : Constant
Frame rate : 23.976 (24000/1001) FPS
Color space : YUV
Chroma subsampling : 4:2:0
Bit depth : 8 bits
Scan type : Progressive
Bits/(Pixel*Frame) : 0.272
Stream size : 10.7 GiB (88%)
Title : [HD]_Sex.and.Zen.Extreme.Ecstasy.2011.1080p.FullHD.DTS.x264.One2loadup.com
Writing library : x264 core
Language : Chinese
Default : Yes
Forced : No
Color range : Limited
Color primaries : BT.709
Transfer characteristics : BT.709
Matrix coefficients : BT.709

Audio #1
ID : 2
Format : AC-3
Format/Info : Audio Coding 3
Commercial name : Dolby Digital
Codec ID : A_AC3
Duration : 1 h 53 min
Bit rate mode : Constant
Bit rate : 384 kb/s
Channel(s) : 6 channels
Channel layout : L R C LFE Ls Rs
Sampling rate : 48.0 kHz
Frame rate : 31.250 FPS (1536 SPF)
Bit depth : 16 bits
Compression mode : Lossy
Stream size : 311 MiB (3%)
Title : Thai AC-3
Language : Thai
Service kind : Complete Main
Default : Yes
Forced : Yes

Audio #2
ID : 3
Format : DTS
Format/Info : Digital Theater Systems
Codec ID : A_DTS
Duration : 1 h 52 min
Bit rate mode : Constant
Bit rate : 1 509 kb/s
Channel(s) : 6 channels
Channel layout : C L R Ls Rs LFE
Sampling rate : 48.0 kHz
Frame rate : 93.750 FPS (512 SPF)
Bit depth : 16 bits
Compression mode : Lossy
Stream size : 1.19 GiB (10%)
Title : Chinese DTS
Language : Chinese
Default : No
Forced : No

Text #1
ID : 4
Format : VobSub
Muxing mode : zlib
Codec ID : S_VOBSUB
Codec ID/Info : Picture based subtitle format used on DVDs
Duration : 1 h 48 min
Bit rate : 1 481 b/s
Count of elements : 970
Stream size : 1.14 MiB (0%)
Title : Thai
Language : Thai
Default : No
Forced : No

Text #2
ID : 5
Format : VobSub
Muxing mode : zlib
Codec ID : S_VOBSUB
Codec ID/Info : Picture based subtitle format used on DVDs
Duration : 1 h 48 min
Bit rate : 3 694 b/s
Count of elements : 970
Stream size : 2.86 MiB (0%)
Title : Thai
Language : Thai
Default : No
Forced : No

Text #3
ID : 6
Format : VobSub
Muxing mode : zlib
Codec ID : S_VOBSUB
Codec ID/Info : Picture based subtitle format used on DVDs
Duration : 1 h 49 min
Bit rate : 1 477 b/s
Count of elements : 1139
Stream size : 1.15 MiB (0%)
Title : Eng
Language : English
Default : No
Forced : No

Text #4
ID : 7
Format : VobSub
Muxing mode : zlib
Codec ID : S_VOBSUB
Codec ID/Info : Picture based subtitle format used on DVDs
Duration : 1 h 48 min
Bit rate : 1 454 b/s
Count of elements : 1139
Stream size : 1.13 MiB (0%)
Title : Chinese
Language : Chinese
Default : No
Forced : No

DOWNLOAD


PART01 |||| PART02 |||| PART03 |||| PART04 |||| PART05 |||| PART06 |||| PART07

PART01 |||| PART02 |||| PART03 |||| PART04 |||| PART05 |||| PART06 |||| PART07

PART01 |||| PART02 |||| PART03 |||| PART04 |||| PART05 |||| PART06 |||| PART07

PART01 |||| PART02 |||| PART03 |||| PART04 |||| PART05 |||| PART06 |||| PART07


Leave A Reply

Your email address will not be published.

%d bloggers like this: