[จีน] Jade Dynasty (2019) กระบี่เทพสังหาร [1080p] [พากย์ไทยโรง 2.0 + เสียงจีน 5.1] [บรรยายจีนฝัง] [เสียงไทยโรง] [PANDAFILE]

0

โหลดหนัง Jade Dynasty (2019) กระบี่เทพสังหาร

Zhu xian I (2019) 1h 41min | Fantasy, Romance | 12 September 2019 (China) Summary: After the massacre of his village, Zhang Xiaofan is taken in by the Qing Yun Sect where he begins his journey of cultivation. When he finds out the truth behind the deaths of his parents, ... See full summary »
Countries: ChinaLanguages: Mandarin

เรื่องย่อ Jade Dynasty (2019) กระบี่เทพสังหาร

เรื่องราวของเด็กชายกำพร้าที่รอดตายจากโศกนาฏกรรมจาก หมู่บ้านของเขา แม้พ่อแม่จะถูกฆ่าตายหมด แต่เขาได้รับความช่วยเหลือและได้พบกับอาจารย์สอนและฝึกฝนวิชาจากสำนักชิงหยุน เมื่อความลับของการตายของพ่อแม่เขาปรากฏ เขาจึงออกตามล่าศัตรูเพื่อแก้แค้นให้กับพ่อแม่ของเขาที่จากไป!!!

Complete name : Jade.Dynasty.2019.1080p.HDRip.AC3.THR.One2loadup.com.mkv
Format : Matroska
Format version : Version 4
File size : 3.50 GiB
Duration : 1 h 40 min
Overall bit rate mode : Constant
Overall bit rate : 4 960 kb/s
Movie name : Jade.Dynasty.2019.1080p.HDRip.AC3.THR.One2loadup.com
Encoded date : UTC 2019-11-16 16:02:47
Writing application : mkvmerge v40.0.0 (‘Old Town Road + Pony’) 64-bit
Writing library : libebml v1.3.9 + libmatroska v1.5.2
Cover : Yes
Attachments : cover.jpg

Video
ID : 1
Format : AVC
Format/Info : Advanced Video Codec
Format profile : [email protected]
Format settings : CABAC / 1 Ref Frames
Format settings, CABAC : Yes
Format settings, ReFrames : 1 frame
Format settings, GOP : M=1, N=25
Codec ID : V_MPEG4/ISO/AVC
Duration : 1 h 40 min
Bit rate mode : Constant
Bit rate : 4 000 kb/s
Width : 1 920 pixels
Height : 800 pixels
Display aspect ratio : 2.40:1
Frame rate mode : Constant
Frame rate : 29.970 (30000/1001) FPS
Color space : YUV
Chroma subsampling : 4:2:0
Bit depth : 8 bits
Scan type : Progressive
Bits/(Pixel*Frame) : 0.087
Stream size : 2.82 GiB (81%)
Title : Jade.Dynasty.2019.1080p.HDRip.AC3.THR.One2loadup.com
Language : Chinese
Default : Yes
Forced : No

Audio #1
ID : 2
Format : AC-3
Format/Info : Audio Coding 3
Commercial name : Dolby Digital
Codec ID : A_AC3
Duration : 1 h 40 min
Bit rate mode : Constant
Bit rate : 320 kb/s
Channel(s) : 2 channels
Channel layout : L R
Sampling rate : 44.1 kHz
Frame rate : 28.711 FPS (1536 SPF)
Bit depth : 16 bits
Compression mode : Lossy
Stream size : 231 MiB (6%)
Title : 2.0 AC3 THR 320k 230m
Language : Thai
Service kind : Complete Main
Default : Yes
Forced : No

Audio #2
ID : 3
Format : AC-3
Format/Info : Audio Coding 3
Commercial name : Dolby Digital
Codec ID : A_AC3
Duration : 1 h 40 min
Bit rate mode : Constant
Bit rate : 640 kb/s
Channel(s) : 6 channels
Channel layout : L R C LFE Ls Rs
Sampling rate : 44.1 kHz
Frame rate : 28.711 FPS (1536 SPF)
Bit depth : 16 bits
Compression mode : Lossy
Stream size : 462 MiB (13%)
Title : 5.1 AC3 Chi 640k
Language : Chinese
Service kind : Complete Main
Default : No
Forced : No

DOWNLOAD


PART01 |||| PART02 |||| PART03 |||| PART04

PART01 |||| PART02 |||| PART03 |||| PART04

PART01 |||| PART02 |||| PART03 |||| PART04

PART01 |||| PART02 |||| PART03 |||| PART04


Leave A Reply

Your email address will not be published.

%d bloggers like this: